Sign Up   |   Sign In  
Six FourPlatform 7Lisa FrankensteinNCISHarrison BergeronThe Love NestShogunDeath and Other DetailsNCIS: Hawai'iOut of DarknessHard LuckThe FloorwalkerPoor ThingsThe NeighborhoodThe Sweet EastThe SimpsonsBob Hearts AbisholaDune: Part TwoThe BannockingMurdoch MysteriesThe Bold and the BeautifulConfessions of a Sociopathic Social ClimberThe BlacksmithThe FiremanTracker

Announcements

02/11

2024

1

Comments

Law and Order Organized Crime S04E04 The Last Supper 720p AMZN WEB-DL DDP5 1 H 264-NTb
[RR/NF/CU]
Size: 1.6GB mkv H264 (HIGH) / EAC3  HD  1280x720

Law & Order: Organized Crime
File Information
[img]http://lookpic.com/cdn/i2/t/0211202409085729-1.jpg[/img]
[img]http://lookpic.com/cdn/i2/t/0211202409085729-2.jpg[/img]
[img]http://lookpic.com/cdn/i2/t/0211202409085729-3.jpg[/img]

General
Unique ID                                : 270040116373671844222885923421131800383 (0xCB27D5AA6058C1250CDC8CF985FA7F3F)
Complete name                            : Law.and.Order.Organized.Crime.S04E04.The.Last.Supper.720p.AMZN.WEB-DL.DDP5.1.H.264-NTb.mkv
Format                                   : Matroska
Format version                           : Version 4
File size                                : 1.58 GiB
Duration                                 : 42 min 23 s
Overall bit rate                         : 5 339 kb/s
Frame rate                               : 23.976 FPS
Writing application                      : mkvmerge v81.0 ('Milliontown') 64-bit
Writing library                          : libebml v1.4.4 + libmatroska v1.7.1

Video
ID                                       : 1
Format                                   : AVC
Format/Info                              : Advanced Video Codec
Format profile                           : High@L3.1
Format settings                          : CABAC / 4 Ref Frames
Format settings, CABAC                   : Yes
Format settings, Reference frames        : 4 frames
Codec ID                                 : V_MPEG4/ISO/AVC
Duration                                 : 42 min 23 s
Bit rate mode                            : Constant
Bit rate                                 : 4 697 kb/s
Nominal bit rate                         : 6 000 kb/s
Width                                    : 1 280 pixels
Height                                   : 720 pixels
Display aspect ratio                     : 16:9
Frame rate mode                          : Constant
Frame rate                               : 23.976 (24000/1001) FPS
Color space                              : YUV
Chroma subsampling                       : 4:2:0
Bit depth                                : 8 bits
Scan type                                : Progressive
Bits/(Pixel*Frame)                       : 0.213
Stream size                              : 1.39 GiB (88%)
Default                                  : Yes
Forced                                   : No
Color range                              : Limited
Color primaries                          : BT.709
Transfer characteristics                 : BT.709
Matrix coefficients                      : BT.709

Audio
ID                                       : 2
Format                                   : E-AC-3
Format/Info                              : Enhanced AC-3
Commercial name                          : Dolby Digital Plus
Codec ID                                 : A_EAC3
Duration                                 : 42 min 23 s
Bit rate mode                            : Constant
Bit rate                                 : 640 kb/s
Channel(s)                               : 6 channels
Channel layout                           : L R C LFE Ls Rs
Sampling rate                            : 48.0 kHz
Frame rate                               : 31.250 FPS (1536 SPF)
Compression mode                         : Lossy
Stream size                              : 194 MiB (12%)
Language                                 : English (US)
Service kind                             : Complete Main
Default                                  : Yes
Forced                                   : No

Text #1
ID                                       : 3
Format                                   : UTF-8
Codec ID                                 : S_TEXT/UTF8
Codec ID/Info                            : UTF-8 Plain Text
Duration                                 : 41 min 25 s
Bit rate                                 : 67 b/s
Frame rate                               : 0.301 FPS
Count of elements                        : 749
Stream size                              : 20.5 KiB (0%)
Language                                 : English (US)
Default                                  : No
Forced                                   : No

Text #2
ID                                       : 4
Format                                   : UTF-8
Codec ID                                 : S_TEXT/UTF8
Codec ID/Info                            : UTF-8 Plain Text
Duration                                 : 42 min 15 s
Bit rate                                 : 70 b/s
Frame rate                               : 0.329 FPS
Count of elements                        : 834
Stream size                              : 21.8 KiB (0%)
Title                                    : SDH
Language                                 : English (US)
Default                                  : No
Forced                                   : No



Download
File Container: MKV
Video/Audio Codec: H264 (HIGH) EAC3
Video Resolution: 1280x720

1 Response to "[RR/NF/CU] Law and Order Organized Crime S04E04 The Last Supper 720p AMZN WEB-DL DDP5 1 H 264-NTb (1.6GB)"
02/11/24
19:52:00
ReadyPlayerOne

Thank You

Please Login to post a comment.
If you don't have any account, please Register.
  • Subscribe my Feeds
  • Facebook
Encoding Queue:  x264  x265

Latest Episodes

Popular Movies and TV Shows

  • Six Four
  • Platform 7
  • Lisa Frankenstein
  • NCIS
  • Harrison Bergeron
  • The Love Nest
  • Shogun
  • Death and Other Details
  • NCIS: Hawai'i
  • Out of Darkness
  • Hard Luck
  • The Floorwalker
  • Poor Things
  • The Neighborhood
  • The Sweet East
  • The Simpsons
  • Bob Hearts Abishola
  • Dune: Part Two
  • The Bannocking
  • Murdoch Mysteries
  • The Bold and the Beautiful
  • Confessions of a Sociopathic Social Climber
  • The Blacksmith
  • The Fireman
  • Tracker

Recent Comments

  • twinkletoes: RMTeam... Shame! Shame! Shame! You offered the 1st 2 episodes of "Captivating The King"......
  • Coronavirus: Did they use a potato to record this? Why can't they sneak in a DJI small camera in the cinema? It i...
  • uncabrian:

    Dead links, This season is mo longer available. Please reload season

  • timt:

    Enjoy the Carry On Movies!

  • Demonz:

    Subtitles look like Russian, not English ?

  • Katzengoettin:

    Please upload

  • MarcoCosta: First of all, THANK YOU for the RE-upload!Now, as this release doesn't include subtitles for the fre...
  • mentalityx:

    Nice one bloke.

  • mentalityx:

    TY

  • MarcoCosta: is it possible to RE-UP this one (or any other release)? All links from all releases are dead...As a...
  • drorsabi1:

    Fire Country sesason 2 episode 2 is the same as episode 1

  • gasol:

    All ClicknUpload links are down, please reupload

  • aaroz88:

    trimas!!

  • mentalityx:

    Thx for this mate.

Archives