Sign Up   |   Sign In  
Mysterious DisappearancesWWE NXTFBI: InternationalRachel Feinstein: Big GuyMission of the Shark: The Saga of the U.S.S. IndianapolisSin Takes a HolidayThe RookieDark MatterThe Good DoctorThe Fall GuyMoonedGekijouban soushuuhen Ôbârôdo: Fushisha no ouWill TrentThe Cleaning LadyFBIBoy Kills WorldThe Manchurian CandidateVisionsFBI: Most WantedWWE RawThe SimpsonsExpend4blesSeize Them!8 Found DeadYoung Sheldon

Announcements

04/10

2024

1

Comments

Loot S02E03 Vengeance Falls 720p ATVP WEB-DL DDP5 1 H 264-NTb
[RR/NF/CU]
Size: 756MB mkv H264 (HIGH) / EAC3  HD  1356x678

Loot
File Information
[img]http://lookpic.com/cdn/i2/t/0410202413293649-1.jpg[/img]
[img]http://lookpic.com/cdn/i2/t/0410202413293649-2.jpg[/img]
[img]http://lookpic.com/cdn/i2/t/0410202413293649-3.jpg[/img]

General
Unique ID                                : 241714789037322865016017319377786950251 (0xB5D89334908A9609EBD7534EDB98D26B)
Complete name                            : Loot S02E03 Vengeance Falls 720p ATVP WEB-DL DDP5 1 H 264-NTb.mkv
Format                                   : Matroska
Format version                           : Version 4
File size                                : 756 MiB
Duration                                 : 29 min 32 s
Overall bit rate                         : 3 579 kb/s
Frame rate                               : 23.976 FPS
Writing application                      : mkvmerge v81.0 ('Milliontown') 64-bit
Writing library                          : libebml v1.4.4 + libmatroska v1.7.1

Video
ID                                       : 1
Format                                   : AVC
Format/Info                              : Advanced Video Codec
Format profile                           : High@L3.2
Format settings                          : CABAC / 5 Ref Frames
Format settings, CABAC                   : Yes
Format settings, Reference frames        : 5 frames
Codec ID                                 : V_MPEG4/ISO/AVC
Duration                                 : 29 min 32 s
Bit rate                                 : 2 802 kb/s
Width                                    : 1 356 pixels
Height                                   : 678 pixels
Display aspect ratio                     : 2.000
Frame rate mode                          : Constant
Frame rate                               : 23.976 (24000/1001) FPS
Color space                              : YUV
Chroma subsampling                       : 4:2:0
Bit depth                                : 8 bits
Scan type                                : Progressive
Bits/(Pixel*Frame)                       : 0.127
Stream size                              : 592 MiB (78%)
Default                                  : Yes
Forced                                   : No
Color range                              : Limited
Color primaries                          : BT.709
Transfer characteristics                 : BT.709
Matrix coefficients                      : BT.709

Audio
ID                                       : 2
Format                                   : E-AC-3 JOC
Format/Info                              : Enhanced AC-3 with Joint Object Coding
Commercial name                          : Dolby Digital Plus with Dolby Atmos
Codec ID                                 : A_EAC3
Duration                                 : 29 min 32 s
Bit rate mode                            : Constant
Bit rate                                 : 768 kb/s
Channel(s)                               : 6 channels
Channel layout                           : L R C LFE Ls Rs
Sampling rate                            : 48.0 kHz
Frame rate                               : 31.250 FPS (1536 SPF)
Compression mode                         : Lossy
Stream size                              : 162 MiB (21%)
Language                                 : English
Service kind                             : Complete Main
Default                                  : Yes
Forced                                   : No
Complexity index                         : 16
Number of dynamic objects                : 15
Bed channel count                        : 1 channel
Bed channel configuration                : LFE

Text #1
ID                                       : 3
Format                                   : UTF-8
Codec ID                                 : S_TEXT/UTF8
Codec ID/Info                            : UTF-8 Plain Text
Duration                                 : 28 min 13 s
Bit rate                                 : 82 b/s
Frame rate                               : 0.252 FPS
Count of elements                        : 427
Stream size                              : 17.0 KiB (0%)
Language                                 : English
Default                                  : No
Forced                                   : No

Text #2
ID                                       : 4
Format                                   : UTF-8
Codec ID                                 : S_TEXT/UTF8
Codec ID/Info                            : UTF-8 Plain Text
Duration                                 : 28 min 21 s
Bit rate                                 : 92 b/s
Frame rate                               : 0.287 FPS
Count of elements                        : 489
Stream size                              : 19.2 KiB (0%)
Title                                    : SDH
Language                                 : English
Default                                  : No
Forced                                   : No

Text #3
ID                                       : 5
Format                                   : UTF-8
Codec ID                                 : S_TEXT/UTF8
Codec ID/Info                            : UTF-8 Plain Text
Duration                                 : 29 min 12 s
Bit rate                                 : 111 b/s
Frame rate                               : 0.252 FPS
Count of elements                        : 441
Stream size                              : 23.9 KiB (0%)
Language                                 : Arabic
Default                                  : No
Forced                                   : No

Text #4
ID                                       : 6
Format                                   : UTF-8
Codec ID                                 : S_TEXT/UTF8
Codec ID/Info                            : UTF-8 Plain Text
Duration                                 : 29 min 12 s
Bit rate                                 : 109 b/s
Frame rate                               : 0.204 FPS
Count of elements                        : 358
Stream size                              : 23.5 KiB (0%)
Language                                 : Bulgarian
Default                                  : No
Forced                                   : No

Text #5
ID                                       : 7
Format                                   : UTF-8
Codec ID                                 : S_TEXT/UTF8
Codec ID/Info                            : UTF-8 Plain Text
Duration                                 : 29 min 12 s
Bit rate                                 : 64 b/s
Frame rate                               : 0.252 FPS
Count of elements                        : 441
Stream size                              : 13.7 KiB (0%)
Title                                    : Chinese (Simplified)
Language                                 : Chinese (Simplified)
Default                                  : No
Forced                                   : No

Text #6
ID                                       : 8
Format                                   : UTF-8
Codec ID                                 : S_TEXT/UTF8
Codec ID/Info                            : UTF-8 Plain Text
Duration                                 : 29 min 12 s
Bit rate                                 : 72 b/s
Frame rate                               : 0.252 FPS
Count of elements                        : 442
Stream size                              : 15.4 KiB (0%)
Title                                    : Chinese (Traditional)
Language                                 : Chinese (Traditional)
Default                                  : No
Forced                                   : No

Text #7
ID                                       : 9
Format                                   : UTF-8
Codec ID                                 : S_TEXT/UTF8
Codec ID/Info                            : UTF-8 Plain Text
Duration                                 : 29 min 12 s
Bit rate                                 : 69 b/s
Frame rate                               : 0.237 FPS
Count of elements                        : 415
Stream size                              : 14.9 KiB (0%)
Language                                 : Czech
Default                                  : No
Forced                                   : No

Text #8
ID                                       : 10
Format                                   : UTF-8
Codec ID                                 : S_TEXT/UTF8
Codec ID/Info                            : UTF-8 Plain Text
Duration                                 : 29 min 12 s
Bit rate                                 : 78 b/s
Frame rate                               : 0.232 FPS
Count of elements                        : 406
Stream size                              : 16.8 KiB (0%)
Language                                 : Danish
Default                                  : No
Forced                                   : No

Text #9
ID                                       : 11
Format                                   : UTF-8
Codec ID                                 : S_TEXT/UTF8
Codec ID/Info                            : UTF-8 Plain Text
Duration                                 : 28 min 27 s
Bit rate                                 : 72 b/s
Frame rate                               : 0.232 FPS
Count of elements                        : 396
Stream size                              : 15.2 KiB (0%)
Language                                 : German
Default                                  : No
Forced                                   : No

Text #10
ID                                       : 12
Format                                   : UTF-8
Codec ID                                 : S_TEXT/UTF8
Codec ID/Info                            : UTF-8 Plain Text
Duration                                 : 29 min 12 s
Bit rate                                 : 123 b/s
Frame rate                               : 0.245 FPS
Count of elements                        : 430
Stream size                              : 26.4 KiB (0%)
Language                                 : Greek
Default                                  : No
Forced                                   : No

Text #11
ID                                       : 13
Format                                   : UTF-8
Codec ID                                 : S_TEXT/UTF8
Codec ID/Info                            : UTF-8 Plain Text
Duration                                 : 29 min 12 s
Bit rate                                 : 79 b/s
Frame rate                               : 0.255 FPS
Count of elements                        : 447
Stream size                              : 17.0 KiB (0%)
Title                                    : Spanish (Latin America)
Language                                 : Spanish (Latin America)
Default                                  : No
Forced                                   : No

Text #12
ID                                       : 14
Format                                   : UTF-8
Codec ID                                 : S_TEXT/UTF8
Codec ID/Info                            : UTF-8 Plain Text
Duration                                 : 29 min 12 s
Bit rate                                 : 81 b/s
Frame rate                               : 0.256 FPS
Count of elements                        : 448
Stream size                              : 17.5 KiB (0%)
Title                                    : Spanish (Spain)
Language                                 : Spanish (ES)
Default                                  : No
Forced                                   : No

Text #13
ID                                       : 15
Format                                   : UTF-8
Codec ID                                 : S_TEXT/UTF8
Codec ID/Info                            : UTF-8 Plain Text
Duration                                 : 29 min 12 s
Bit rate                                 : 70 b/s
Frame rate                               : 0.235 FPS
Count of elements                        : 412
Stream size                              : 15.2 KiB (0%)
Language                                 : Estonian
Default                                  : No
Forced                                   : No

Text #14
ID                                       : 16
Format                                   : UTF-8
Codec ID                                 : S_TEXT/UTF8
Codec ID/Info                            : UTF-8 Plain Text
Duration                                 : 29 min 12 s
Bit rate                                 : 69 b/s
Frame rate                               : 0.224 FPS
Count of elements                        : 393
Stream size                              : 15.0 KiB (0%)
Language                                 : Finnish
Default                                  : No
Forced                                   : No

Text #15
ID                                       : 17
Format                                   : UTF-8
Codec ID                                 : S_TEXT/UTF8
Codec ID/Info                            : UTF-8 Plain Text
Duration                                 : 29 min 10 s
Bit rate                                 : 67 b/s
Frame rate                               : 0.243 FPS
Count of elements                        : 425
Stream size                              : 14.5 KiB (0%)
Title                                    : French (Canada)
Language                                 : French (CA)
Default                                  : No
Forced                                   : No

Text #16
ID                                       : 18
Format                                   : UTF-8
Codec ID                                 : S_TEXT/UTF8
Codec ID/Info                            : UTF-8 Plain Text
Duration                                 : 29 min 10 s
Bit rate                                 : 67 b/s
Frame rate                               : 0.242 FPS
Count of elements                        : 424
Stream size                              : 14.5 KiB (0%)
Title                                    : French (France)
Language                                 : French (FR)
Default                                  : No
Forced                                   : No

Text #17
ID                                       : 19
Format                                   : UTF-8
Codec ID                                 : S_TEXT/UTF8
Codec ID/Info                            : UTF-8 Plain Text
Duration                                 : 29 min 12 s
Bit rate                                 : 108 b/s
Frame rate                               : 0.252 FPS
Count of elements                        : 442
Stream size                              : 23.3 KiB (0%)
Language                                 : Hebrew
Default                                  : No
Forced                                   : No

Text #18
ID                                       : 20
Format                                   : UTF-8
Codec ID                                 : S_TEXT/UTF8
Codec ID/Info                            : UTF-8 Plain Text
Duration                                 : 29 min 12 s
Bit rate                                 : 218 b/s
Frame rate                               : 0.253 FPS
Count of elements                        : 443
Stream size                              : 46.7 KiB (0%)
Language                                 : Hindi
Default                                  : No
Forced                                   : No

Text #19
ID                                       : 21
Format                                   : UTF-8
Codec ID                                 : S_TEXT/UTF8
Codec ID/Info                            : UTF-8 Plain Text
Duration                                 : 29 min 12 s
Bit rate                                 : 82 b/s
Frame rate                               : 0.249 FPS
Count of elements                        : 437
Stream size                              : 17.6 KiB (0%)
Language                                 : Hungarian
Default                                  : No
Forced                                   : No

Text #20
ID                                       : 22
Format                                   : UTF-8
Codec ID                                 : S_TEXT/UTF8
Codec ID/Info                            : UTF-8 Plain Text
Duration                                 : 29 min 12 s
Bit rate                                 : 81 b/s
Frame rate                               : 0.248 FPS
Count of elements                        : 435
Stream size                              : 17.4 KiB (0%)
Language                                 : Indonesian
Default                                  : No
Forced                                   : No

Text #21
ID                                       : 23
Format                                   : UTF-8
Codec ID                                 : S_TEXT/UTF8
Codec ID/Info                            : UTF-8 Plain Text
Duration                                 : 29 min 4 s
Bit rate                                 : 79 b/s
Frame rate                               : 0.250 FPS
Count of elements                        : 437
Stream size                              : 17.0 KiB (0%)
Language                                 : Italian
Default                                  : No
Forced                                   : No

Text #22
ID                                       : 24
Format                                   : UTF-8
Codec ID                                 : S_TEXT/UTF8
Codec ID/Info                            : UTF-8 Plain Text
Duration                                 : 29 min 18 s
Bit rate                                 : 63 b/s
Frame rate                               : 0.255 FPS
Count of elements                        : 449
Stream size                              : 13.6 KiB (0%)
Language                                 : Japanese
Default                                  : No
Forced                                   : No

Text #23
ID                                       : 25
Format                                   : UTF-8
Codec ID                                 : S_TEXT/UTF8
Codec ID/Info                            : UTF-8 Plain Text
Duration                                 : 29 min 12 s
Bit rate                                 : 88 b/s
Frame rate                               : 0.254 FPS
Count of elements                        : 445
Stream size                              : 18.9 KiB (0%)
Language                                 : Korean
Default                                  : No
Forced                                   : No

Text #24
ID                                       : 26
Format                                   : UTF-8
Codec ID                                 : S_TEXT/UTF8
Codec ID/Info                            : UTF-8 Plain Text
Duration                                 : 29 min 12 s
Bit rate                                 : 77 b/s
Frame rate                               : 0.251 FPS
Count of elements                        : 440
Stream size                              : 16.7 KiB (0%)
Language                                 : Lithuanian
Default                                  : No
Forced                                   : No

Text #25
ID                                       : 27
Format                                   : UTF-8
Codec ID                                 : S_TEXT/UTF8
Codec ID/Info                            : UTF-8 Plain Text
Duration                                 : 29 min 12 s
Bit rate                                 : 81 b/s
Frame rate                               : 0.250 FPS
Count of elements                        : 438
Stream size                              : 17.3 KiB (0%)
Language                                 : Latvian
Default                                  : No
Forced                                   : No

Text #26
ID                                       : 28
Format                                   : UTF-8
Codec ID                                 : S_TEXT/UTF8
Codec ID/Info                            : UTF-8 Plain Text
Duration                                 : 29 min 12 s
Bit rate                                 : 75 b/s
Frame rate                               : 0.249 FPS
Count of elements                        : 436
Stream size                              : 16.2 KiB (0%)
Language                                 : Malay
Default                                  : No
Forced                                   : No

Text #27
ID                                       : 29
Format                                   : UTF-8
Codec ID                                 : S_TEXT/UTF8
Codec ID/Info                            : UTF-8 Plain Text
Duration                                 : 29 min 12 s
Bit rate                                 : 67 b/s
Frame rate                               : 0.191 FPS
Count of elements                        : 335
Stream size                              : 14.4 KiB (0%)
Language                                 : Dutch
Default                                  : No
Forced                                   : No

Text #28
ID                                       : 30
Format                                   : UTF-8
Codec ID                                 : S_TEXT/UTF8
Codec ID/Info                            : UTF-8 Plain Text
Duration                                 : 29 min 12 s
Bit rate                                 : 72 b/s
Frame rate                               : 0.197 FPS
Count of elements                        : 345
Stream size                              : 15.5 KiB (0%)
Language                                 : Norwegian
Default                                  : No
Forced                                   : No

Text #29
ID                                       : 31
Format                                   : UTF-8
Codec ID                                 : S_TEXT/UTF8
Codec ID/Info                            : UTF-8 Plain Text
Duration                                 : 29 min 12 s
Bit rate                                 : 73 b/s
Frame rate                               : 0.247 FPS
Count of elements                        : 433
Stream size                              : 15.7 KiB (0%)
Language                                 : Polish
Default                                  : No
Forced                                   : No

Text #30
ID                                       : 32
Format                                   : UTF-8
Codec ID                                 : S_TEXT/UTF8
Codec ID/Info                            : UTF-8 Plain Text
Duration                                 : 29 min 12 s
Bit rate                                 : 72 b/s
Frame rate                               : 0.244 FPS
Count of elements                        : 427
Stream size                              : 15.6 KiB (0%)
Title                                    : Portuguese
Language                                 : Portuguese
Default                                  : No
Forced                                   : No

Text #31
ID                                       : 33
Format                                   : UTF-8
Codec ID                                 : S_TEXT/UTF8
Codec ID/Info                            : UTF-8 Plain Text
Duration                                 : 29 min 12 s
Bit rate                                 : 72 b/s
Frame rate                               : 0.245 FPS
Count of elements                        : 430
Stream size                              : 15.6 KiB (0%)
Title                                    : Portuguese (Brazil)
Language                                 : Portuguese (BR)
Default                                  : No
Forced                                   : No

Text #32
ID                                       : 34
Format                                   : UTF-8
Codec ID                                 : S_TEXT/UTF8
Codec ID/Info                            : UTF-8 Plain Text
Duration                                 : 29 min 12 s
Bit rate                                 : 123 b/s
Frame rate                               : 0.250 FPS
Count of elements                        : 438
Stream size                              : 26.4 KiB (0%)
Language                                 : Russian
Default                                  : No
Forced                                   : No

Text #33
ID                                       : 35
Format                                   : UTF-8
Codec ID                                 : S_TEXT/UTF8
Codec ID/Info                            : UTF-8 Plain Text
Duration                                 : 29 min 12 s
Bit rate                                 : 72 b/s
Frame rate                               : 0.248 FPS
Count of elements                        : 435
Stream size                              : 15.6 KiB (0%)
Language                                 : Slovak
Default                                  : No
Forced                                   : No

Text #34
ID                                       : 36
Format                                   : UTF-8
Codec ID                                 : S_TEXT/UTF8
Codec ID/Info                            : UTF-8 Plain Text
Duration                                 : 29 min 12 s
Bit rate                                 : 60 b/s
Frame rate                               : 0.240 FPS
Count of elements                        : 420
Stream size                              : 13.0 KiB (0%)
Language                                 : Slovenian
Default                                  : No
Forced                                   : No

Text #35
ID                                       : 37
Format                                   : UTF-8
Codec ID                                 : S_TEXT/UTF8
Codec ID/Info                            : UTF-8 Plain Text
Duration                                 : 29 min 12 s
Bit rate                                 : 70 b/s
Frame rate                               : 0.216 FPS
Count of elements                        : 379
Stream size                              : 15.0 KiB (0%)
Language                                 : Swedish
Default                                  : No
Forced                                   : No

Text #36
ID                                       : 38
Format                                   : UTF-8
Codec ID                                 : S_TEXT/UTF8
Codec ID/Info                            : UTF-8 Plain Text
Duration                                 : 29 min 12 s
Bit rate                                 : 248 b/s
Frame rate                               : 0.252 FPS
Count of elements                        : 442
Stream size                              : 53.3 KiB (0%)
Language                                 : Tamil
Default                                  : No
Forced                                   : No

Text #37
ID                                       : 39
Format                                   : UTF-8
Codec ID                                 : S_TEXT/UTF8
Codec ID/Info                            : UTF-8 Plain Text
Duration                                 : 29 min 12 s
Bit rate                                 : 232 b/s
Frame rate                               : 0.252 FPS
Count of elements                        : 442
Stream size                              : 49.6 KiB (0%)
Language                                 : Telugu
Default                                  : No
Forced                                   : No

Text #38
ID                                       : 40
Format                                   : UTF-8
Codec ID                                 : S_TEXT/UTF8
Codec ID/Info                            : UTF-8 Plain Text
Duration                                 : 29 min 12 s
Bit rate                                 : 193 b/s
Frame rate                               : 0.252 FPS
Count of elements                        : 442
Stream size                              : 41.3 KiB (0%)
Language                                 : Thai
Default                                  : No
Forced                                   : No

Text #39
ID                                       : 41
Format                                   : UTF-8
Codec ID                                 : S_TEXT/UTF8
Codec ID/Info                            : UTF-8 Plain Text
Duration                                 : 29 min 12 s
Bit rate                                 : 76 b/s
Frame rate                               : 0.241 FPS
Count of elements                        : 422
Stream size                              : 16.4 KiB (0%)
Language                                 : Turkish
Default                                  : No
Forced                                   : No

Text #40
ID                                       : 42
Format                                   : UTF-8
Codec ID                                 : S_TEXT/UTF8
Codec ID/Info                            : UTF-8 Plain Text
Duration                                 : 29 min 12 s
Bit rate                                 : 114 b/s
Frame rate                               : 0.251 FPS
Count of elements                        : 440
Stream size                              : 24.6 KiB (0%)
Language                                 : Ukrainian
Default                                  : No
Forced                                   : No

Text #41
ID                                       : 43
Format                                   : UTF-8
Codec ID                                 : S_TEXT/UTF8
Codec ID/Info                            : UTF-8 Plain Text
Duration                                 : 29 min 12 s
Bit rate                                 : 94 b/s
Frame rate                               : 0.251 FPS
Count of elements                        : 440
Stream size                              : 20.2 KiB (0%)
Language                                 : Vietnamese
Default                                  : No
Forced                                   : No

Text #42
ID                                       : 44
Format                                   : UTF-8
Codec ID                                 : S_TEXT/UTF8
Codec ID/Info                            : UTF-8 Plain Text
Duration                                 : 29 min 12 s
Bit rate                                 : 63 b/s
Frame rate                               : 0.252 FPS
Count of elements                        : 442
Stream size                              : 13.6 KiB (0%)
Title                                    : Chinese (Traditional)
Language                                 : Chinese (Traditional)
Default                                  : No
Forced                                   : No

Menu
00:00:00.000                             : en:Chapter 1
00:01:58.708                             : en:Intro
00:02:34.958                             : en:Chapter 2



Download
File Container: MKV
Video/Audio Codec: H264 (HIGH) EAC3
Video Resolution: 1356x678

1 Response to "[RR/NF/CU] Loot S02E03 Vengeance Falls 720p ATVP WEB-DL DDP5 1 H 264-NTb (756MB)"
04/10/24
19:09:20
ReadyPlayerOne

Thank You

Please Login to post a comment.
If you don't have any account, please Register.
  • Subscribe my Feeds
  • Facebook
Encoding Queue:  x264  x265

Latest Episodes

Popular Movies and TV Shows

  • Mysterious Disappearances
  • WWE NXT
  • FBI: International
  • Rachel Feinstein: Big Guy
  • Mission of the Shark: The Saga of the U.S.S. Indianapolis
  • Sin Takes a Holiday
  • The Rookie
  • Dark Matter
  • The Good Doctor
  • The Fall Guy
  • Mooned
  • Gekijouban soushuuhen Ôbârôdo: Fushisha no ou
  • Will Trent
  • The Cleaning Lady
  • FBI
  • Boy Kills World
  • The Manchurian Candidate
  • Visions
  • FBI: Most Wanted
  • WWE Raw
  • The Simpsons
  • Expend4bles
  • Seize Them!
  • 8 Found Dead
  • Young Sheldon

Recent Comments

  • OldMovies:

    Has Czech subtitles but not English. Need forced English for the foreign language parts.

  • PROFessorMorrynarty: Would it be possible to upload 'Lego masters Australia' Series 6 Episode 6 Please? It's the only one...
  • mentalityx:

    Thx mate.

  • Bud: Is the search engine down for everyone, or just me? It just says 'You're forbidden!' whenever I lo...
  • 23d1:

    not episode 4 it is episode 3

  • 23d1:

    not episode 4 it is episode 3

  • 23d1:

    not episode 4 it is episode 3

  • 23d1:

    not episode 4 it is episode 3

  • aaroz88:

    Trimas!!

  • mptoo: I don't often ask this, infact this would be the first time, but I don't suppose there is any chance...
  • Cinque_Persson:

    btw:
    quote /quote
    is broken

  • gabrielsyme:

    Sorry but where is the clicknupload link?

  • mike1204:

    Is this episode doomed??? The RMX avi version is only 12 minutes long!!!

Archives