Sign Up   |   Sign In  

Announcements

Want to support us?
Buy a RapidRAR account from our resellers:
Buy or renew a NitroFlare account via THIS LINK

04/19

2017

No

Comments

Marvels Agents of S H I E L D S04E18 720p WEB-DL DD5 1 H264-RARBG
[RR/NF/UL/UR]
Size: 1.4GB mkv H264 (HIGH) / AC3  HD  1280x720

Agents of S.H.I.E.L.D.
Click on the image to see full size
[RR/NF/UL/UR] Marvels Agents of S H I E L D S04E18 720p WEB-DL DD5 1 H264-RARBG (1.4GB) - Snapshot 1
File Information
[URL=http://imagecurl.com/viewer.php?file=93239941559736880579.png][IMG]http://imagecurl.com/images/93239941559736880579_thumb.png[/IMG][/URL]
[URL=http://imagecurl.com/viewer.php?file=98606411906196007475.png][IMG]http://imagecurl.com/images/98606411906196007475_thumb.png[/IMG][/URL]
[URL=http://imagecurl.com/viewer.php?file=93822440902350643766.png][IMG]http://imagecurl.com/images/93822440902350643766_thumb.png[/IMG][/URL]
[URL=http://imagecurl.com/viewer.php?file=40031310965894451626.png][IMG]http://imagecurl.com/images/40031310965894451626_thumb.png[/IMG][/URL]
[URL=http://imagecurl.com/viewer.php?file=86499250086416088566.png][IMG]http://imagecurl.com/images/86499250086416088566_thumb.png[/IMG][/URL]
[URL=http://imagecurl.com/viewer.php?file=32619114655535554886.png][IMG]http://imagecurl.com/images/32619114655535554886_thumb.png[/IMG][/URL]



[mediainfo]
Video
ID                                       : 1
Format                                   : AVC
Format/Info                              : Advanced Video Codec
Format profile                           : [email protected]
Format settings, CABAC                   : No
Format settings, ReFrames                : 2 frames
Codec ID                                 : V_MPEG4/ISO/AVC
Duration                                 : 43mn 1s
Bit rate                                 : 4 024 Kbps
Width                                    : 1 280 pixels
Height                                   : 720 pixels
Display aspect ratio                     : 16:9
Frame rate mode                          : Constant
Frame rate                               : 23.976 (24000/1001) fps
Color space                              : YUV
Chroma subsampling                       : 4:2:0
Bit depth                                : 8 bits
Scan type                                : Progressive
Bits/(Pixel*Frame)                       : 0.182
Stream size                              : 1.21 GiB (89%)
Title                                    : Marvels.Agents.of.S.H.I.E.L.D.S04E18.720p.WEB-DL.DD5.1.H264-RARBG
Language                                 : English
Default                                  : Yes
Forced                                   : No
Color range                              : Limited
Color primaries                          : BT.709
Transfer characteristics                 : BT.709
Matrix coefficients                      : BT.709

Audio
ID                                       : 2
Format                                   : AC-3
Format/Info                              : Audio Coding 3
Mode extension                           : CM (complete main)
Format settings, Endianness              : Big
Codec ID                                 : A_AC3
Duration                                 : 43mn 1s
Bit rate mode                            : Constant
Bit rate                                 : 384 Kbps
Channel(s)                               : 6 channels
Channel positions                        : Front: L C R, Side: L R, LFE
Sampling rate                            : 48.0 KHz
Frame rate                               : 31.250 fps (1536 spf)
Compression mode                         : Lossy
Stream size                              : 118 MiB (9%)
Title                                    : Marvels.Agents.of.S.H.I.E.L.D.S04E18.720p.WEB-DL.DD5.1.H264-RARBG
Language                                 : English
Default                                  : Yes
Forced                                   : No

Text #1
ID                                       : 3
Format                                   : UTF-8
Codec ID                                 : S_TEXT/UTF8
Codec ID/Info                            : UTF-8 Plain Text
Language                                 : English
Default                                  : Yes
Forced                                   : No

Text #2
ID                                       : 4
Format                                   : UTF-8
Codec ID                                 : S_TEXT/UTF8
Codec ID/Info                            : UTF-8 Plain Text
Title                                    : SDH
Language                                 : English
Default                                  : No
Forced                                   : No



[/mediainfo]
Download
File Container: MKV
Video/Audio Codec: H264 (HIGH) AC3
Video Resolution: 1280x720
 
 
 
 

Show us some love

Leave a Comment

  • (never displayed)
  •  
        Members don't see captchas. Sign Up / Sign In
  • Notify me via email when someone responds.
  • Subscribe my Feeds
  • Facebook

Latest Episodes

Popular Movies and TV Shows

  • Dark Matter
  • Killjoys
  • TURN
  • Dragon Nest: Warriors' Dawn
  • Grave
  • Three Kings
  • Room 104
  • Wynonna Earp
  • Puppy Dog Pals
  • Spider-Man: Homecoming
  • King Arthur: Legend of the Sword
  • The Guest
  • The Last Tycoon
  • People of Earth
  • Daughters of Destiny
  • The Adventures of Puss in Boots
  • It Stains the Sands Red
  • Fear City
  • The Mist
  • Top of the Lake
  • Queen of the South
  • The Incredible Jessica James
  • Operation Dunkirk
  • Imperfections
  • Suits

Recent Comments

  • vandak: some1uknow right?! this show is so neglected, i dont understand.. anyone and everyone ive shown it t...
  • SO: BUT - didn't (RL) steal it first and brake the copyright infringement act too? yes they did LOLIS - ...
  • AlbertDof: порно детская порнография зоо порно скачать бесплатн...
  • NatMat:

    What's with all the ClickNUpload undef links?

  • mda:

    1080p HEVC Please

  • SQ:

    FYI - yet another stolen and ripped off post(from RL)

  • Warlock:

    Episode 4: Audio out of sync, wrong audio or wrong episode...

  • ed:

    720p RMTeam release please

  • thaone:

    Thanks

  • alfa:

    Thanks