Sign Up   |   Sign In  

Announcements

Want to support us?
Buy a RapidRAR account from our resellers:
Buy or renew a NitroFlare account via THIS LINK

04/19

2017

No

Comments

Marvels Agents of S H I E L D S04E18 WEB-DL x264-RARBG
[RR/NF/UL/OL/OLw/UR/CU]
Size: 236MB mp4 H264 (HIGH) (AVC1) / AAC (LC) (MP4A) 720x400

Agents of S.H.I.E.L.D.
Click on the image to see full size
[RR/NF/UL/OL/OLw/UR/CU] Marvels Agents of S H I E L D S04E18 WEB-DL x264-RARBG (236MB) - Snapshot 1[RR/NF/UL/OL/OLw/UR/CU] Marvels Agents of S H I E L D S04E18 WEB-DL x264-RARBG (236MB) - Snapshot 2
File Information
[URL]http://www.imdb.com/title/tt2364582/[/URL]
[screenshots]
[URL=http://imagecurl.com/viewer.php?file=29427398809363901456.png][IMG]http://imagecurl.com/images/29427398809363901456_thumb.png[/IMG][/URL]
[URL=http://imagecurl.com/viewer.php?file=75470149489222387002.png][IMG]http://imagecurl.com/images/75470149489222387002_thumb.png[/IMG][/URL]
[URL=http://imagecurl.com/viewer.php?file=65725351785461102488.png][IMG]http://imagecurl.com/images/65725351785461102488_thumb.png[/IMG][/URL]
[URL=http://imagecurl.com/viewer.php?file=30109752341294725208.png][IMG]http://imagecurl.com/images/30109752341294725208_thumb.png[/IMG][/URL]

[/screenshots]


[mediainfo]
Video
ID                                       : 1
Format                                   : AVC
Format/Info                              : Advanced Video Codec
Format profile                           : [email protected]
Format settings, CABAC                   : Yes
Format settings, ReFrames                : 5 frames
Codec ID                                 : avc1
Codec ID/Info                            : Advanced Video Coding
Duration                                 : 43mn 1s
Bit rate                                 : 635 Kbps
Width                                    : 720 pixels
Height                                   : 400 pixels
Display aspect ratio                     : 16:9
Frame rate mode                          : Constant
Frame rate                               : 23.976 (24000/1001) fps
Color space                              : YUV
Chroma subsampling                       : 4:2:0
Bit depth                                : 8 bits
Scan type                                : Progressive
Bits/(Pixel*Frame)                       : 0.092
Stream size                              : 195 MiB (83%)
Title                                    : RARBG.COM - Marvels.Agents.of.S.H.I.E.L.D.S04E18.WEB-DL.x264-RARBG
Writing library                          : x264 core 148 r2597M e86f3a1
 Encoding settings                        : cabac=1 / ref=5 / deblock=1:-1:-1 / analyse=0x3:0x113 / me=umh / subme=9 / psy=1 / psy_rd=1.00:0.15 / mixed_ref=1 / me_range=16 / chroma_me=1 / trellis=2 / 8x8dct=1 / cqm=0 / deadz / fast pskip=1 / chroma_qp_offset=-3 / threads=12 / lookahead_threads=1 / sliced_threads=0 / nr=0 / decimate=1 / interlaced=0 / bluray_compat=0 / c / bframes=3 / b_pyramid=2 / b_adapt=2 / b_bias=0 / direct=3 / weightb=1 / open_gop=0 / weightp=2 / keyint=250 / keyint_min=23 / scenecut=40 / intra_refresh=0 / rc_lookahead=50 / rc=crf / mbtree=1 / crf=19.0 / qcomp=0.60 / qpmin=0 / qpmax=69 / qpstep=4 / ip_ratio=1.40 / aq=1:1.00
Language                                 : English
Encoded date                             : UTC 2017-04-19 09:22:26
Tagged date                              : UTC 2017-04-19 09:22:26

Audio
ID                                       : 2
Format                                   : AAC
Format/Info                              : Advanced Audio Codec
Format profile                           : LC
Codec ID                                 : 40
Duration                                 : 43mn 1s
Duration_LastFrame                       : -11ms
Bit rate mode                            : Constant
Bit rate                                 : 128 Kbps
Channel(s)                               : 2 channels
Channel positions                        : Front: L R
Sampling rate                            : 48.0 KHz
Frame rate                               : 46.875 fps (1024 spf)
Compression mode                         : Lossy
Stream size                              : 39.4 MiB (17%)
Title                                    : RARBG.COM - Marvels.Agents.of.S.H.I.E.L.D.S04E18.WEB-DL.x264-RARBG
Language                                 : English
Default                                  : Yes
Alternate group                          : 1
Encoded date                             : UTC 2017-04-19 09:22:26
Tagged date                              : UTC 2017-04-19 09:22:26



[/mediainfo]
Download
File Container: MP4
Video/Audio Codec: H264 (HIGH) (AVC1) AAC (LC) (MP4A)
Video Resolution: 720x400
 
 
 
 
 
 
Watch Online [MP4]

Show us some love

Leave a Comment

  • (never displayed)
  •  
        Members don't see captchas. Sign Up / Sign In
  • Notify me via email when someone responds.
  • Subscribe my Feeds
  • Facebook

Latest Episodes

Popular Movies and TV Shows

  • The Big Bang Theory
  • Dear White People
  • The Blacklist
  • Voice from the Stone
  • The Sex Addict
  • Colossal
  • Supernatural
  • Grey's Anatomy
  • The Last Kingdom
  • A Dark Song
  • Fallen
  • Fire in Her Bed
  • Riverdale
  • The Catch
  • Scandal
  • Fifty Shades Darker
  • Ikari
  • Worry Dolls
  • Fargo
  • Arrow
  • Blindspot
  • The Fate of the Furious
  • Bliss
  • Stratton
  • The Flash

Recent Comments

  • TT:

    uploaded link is dead for all this episode and all others of this series

  • swisspop:

    Video is completely garbled. Waiting for PROPER.

  • tt:

    uploaded links have been removed for all versions of this episode

  • Kirvas:

    The subtitles are Chinese

  • meridian:

    @CharMr
    A free account will let you download files up to 990 MB

  • jwill758:

    Could you please reup the RapidRAR files once again please

  • bigbadbryce: Baskets.S02E02.PROPER.HDTV.x264-KILLERSRapidrar link dead. Could you please re-up.Ciao
  • thaone:

    Thank you

  • thaone:

    Thank you

  • thaone:

    Thank you