Sign Up   |   Sign In  

Announcements

Want to support us?
Buy a RapidRAR account from our resellers:
Buy or renew a NitroFlare account via THIS LINK

04/18

2017

1

Comments

Outcast S02E03 WEBRip X264-RARBG
[RR/NF/UL/OL/OLw/UR]
Size: 404MB mp4 H264 (HIGH) (AVC1) / AAC (LC) (MP4A) 720x400

Outcast
Click on the image to see full size
[RR/NF/UL/OL/OLw/UR] Outcast S02E03 WEBRip X264-RARBG (404MB) - Snapshot 1[RR/NF/UL/OL/OLw/UR] Outcast S02E03 WEBRip X264-RARBG (404MB) - Snapshot 2
File Information
[URL]http://www.imdb.com/title/tt4229954/[/URL]
[screenshots]
[URL=http://imagecurl.com/viewer.php?file=51625230591599150401.png][IMG]http://imagecurl.com/images/51625230591599150401_thumb.png[/IMG][/URL]
[URL=http://imagecurl.com/viewer.php?file=40411852961303015180.png][IMG]http://imagecurl.com/images/40411852961303015180_thumb.png[/IMG][/URL]
[URL=http://imagecurl.com/viewer.php?file=39687159461989221942.png][IMG]http://imagecurl.com/images/39687159461989221942_thumb.png[/IMG][/URL]
[URL=http://imagecurl.com/viewer.php?file=42684972069919603876.png][IMG]http://imagecurl.com/images/42684972069919603876_thumb.png[/IMG][/URL]

[/screenshots]


[mediainfo]
Video
ID                                       : 1
Format                                   : AVC
Format/Info                              : Advanced Video Codec
Format profile                           : [email protected]
Format settings, CABAC                   : Yes
Format settings, ReFrames                : 5 frames
Codec ID                                 : avc1
Codec ID/Info                            : Advanced Video Coding
Duration                                 : 46mn 47s
Bit rate                                 : 1 100 Kbps
Width                                    : 720 pixels
Height                                   : 400 pixels
Display aspect ratio                     : 16:9
Frame rate mode                          : Constant
Frame rate                               : 23.976 (24000/1001) fps
Color space                              : YUV
Chroma subsampling                       : 4:2:0
Bit depth                                : 8 bits
Scan type                                : Progressive
Bits/(Pixel*Frame)                       : 0.159
Stream size                              : 360 MiB (89%)
Title                                    : RARBG.COM - Outcast.S02E03.WEBRip.X264-RARBG
Writing library                          : x264 core 148 r2597M e86f3a1
 Encoding settings                        : cabac=1 / ref=5 / deblock=1:-1:-1 / analyse=0x3:0x113 / me=umh / subme=9 / psy=1 / psy_rd=1.00:0.15 / mixed_ref=1 / me_range=16 / chroma_me=1 / trellis=2 / 8x8dct=1 / cqm=0 / deadz / fast pskip=1 / chroma_qp_offset=-3 / threads=12 / lookahead_threads=1 / sliced_threads=0 / nr=0 / decimate=1 / interlaced=0 / bluray_compat=0 / c / bframes=3 / b_pyramid=2 / b_adapt=2 / b_bias=0 / direct=3 / weightb=1 / open_gop=0 / weightp=2 / keyint=250 / keyint_min=23 / scenecut=40 / intra_refresh=0 / rc_lookahead=50 / rc=abr / mbtree=1 / bitrate=1100 / ratetol=1.0 / qcomp=0.60 / qpmin=0 / qpmax=69 / qpstep=4 / ip_ratio=1.40 / aq=1:1.00
Language                                 : English
Encoded date                             : UTC 2017-04-18 06:21:47
Tagged date                              : UTC 2017-04-18 06:21:47

Audio
ID                                       : 2
Format                                   : AAC
Format/Info                              : Advanced Audio Codec
Format profile                           : LC
Codec ID                                 : 40
Duration                                 : 46mn 47s
Bit rate mode                            : Constant
Bit rate                                 : 128 Kbps
Channel(s)                               : 2 channels
Channel positions                        : Front: L R
Sampling rate                            : 48.0 KHz
Frame rate                               : 46.875 fps (1024 spf)
Compression mode                         : Lossy
Stream size                              : 42.8 MiB (11%)
Title                                    : RARBG.COM - Outcast.S02E03.WEBRip.X264-RARBG
Language                                 : English
Default                                  : Yes
Alternate group                          : 1
Encoded date                             : UTC 2017-04-18 06:21:47
Tagged date                              : UTC 2017-04-18 06:21:47



[/mediainfo]
Download
File Container: MP4
Video/Audio Codec: H264 (HIGH) (AVC1) AAC (LC) (MP4A)
Video Resolution: 720x400
 
 
 
 
 
Watch Online [MP4]

Show us some love

1 Response to "[RR/NF/UL/OL/OLw/UR] Outcast S02E03 WEBRip X264-RARBG (404MB)"
05/01/17
16:13:18
Admin

RapidRAR re-uploaded with new RAR file(s) (users who couldn't download some parts need to download all parts again).

Leave a Comment

  • (never displayed)
  •  
        Members don't see captchas. Sign Up / Sign In
  • Notify me via email when someone responds.
  • Subscribe my Feeds
  • Facebook

Latest Episodes

Popular Movies and TV Shows

  • iZombie
  • A Few Less Men
  • Animal Kingdom
  • World of Dance
  • The Lost City of Z
  • Their Finest
  • Pretty Little Liars
  • Wrecked
  • Tosh.0
  • Trespass
  • Black Butterfly
  • Alien: Covenant
  • Broken
  • Preacher
  • After School Special
  • Avalon
  • Downward Dog
  • Transformers: The Last Knight
  • Stitchers
  • Shadowhunters
  • Glastonbury 2017
  • ExPatriot
  • Grey Lady
  • Don't Hang Up
  • Silicon Valley

Recent Comments