Sign Up   |   Sign In  
House of the DragonWhen Calls the HeartCaracasCry-BabyEnter Three DragonsCult Massacre: One Day in JonestownNCISPlatonicRiddickThe Einstein ChallengeReturn to Never LandKiller Body CountWatch What Happens Live with Andy CohenMayor of KingstownWalkerTwo Way StretchCats in the MuseumJack Whitehall: Settle DownThe Loud HouseInterview with the VampireHotel CocaineOctopussyDaaaaaali!Calamity JaneThe Daily Show

Announcements

05/16

2024

1

Comments

Outer Range S02E06 Do-Si-Do 720p AMZN WEB-DL DDP5 1 Atmos H 264-FLUX
[RR/NF/CU]
Size: 1.7GB mkv H264 (HIGH) / EAC3  HD  1248x520

Outer Range
File Information
[img]http://lookpic.com/cdn/i2/t/0516202411094747-1.jpg[/img]
[img]http://lookpic.com/cdn/i2/t/0516202411094747-2.jpg[/img]
[img]http://lookpic.com/cdn/i2/t/0516202411094747-3.jpg[/img]

General
Unique ID                                : 327306101121480274803220020279340502414 (0xF63CDCB370D945AA72EC75BC5F650D8E)
Complete name                            : Outer Range S02E06 Do-Si-Do 720p AMZN WEB-DL DDP5 1 Atmos H 264-FLUX.mkv
Format                                   : Matroska
Format version                           : Version 4
File size                                : 1.70 GiB
Duration                                 : 58 min 50 s
Overall bit rate                         : 4 136 kb/s
Frame rate                               : 24.000 FPS
Writing application                      : mkvmerge v83.0 ('Circle Of Friends') 64-bit
Writing library                          : libebml v1.4.5 + libmatroska v1.7.1

Video
ID                                       : 1
Format                                   : AVC
Format/Info                              : Advanced Video Codec
Format profile                           : High@L3.1
Format settings                          : CABAC / 4 Ref Frames
Format settings, CABAC                   : Yes
Format settings, Reference frames        : 4 frames
Codec ID                                 : V_MPEG4/ISO/AVC
Duration                                 : 58 min 50 s
Bit rate mode                            : Constant
Bit rate                                 : 3 683 kb/s
Nominal bit rate                         : 4 000 kb/s
Width                                    : 1 248 pixels
Height                                   : 520 pixels
Display aspect ratio                     : 2.40:1
Frame rate mode                          : Constant
Frame rate                               : 24.000 FPS
Color space                              : YUV
Chroma subsampling                       : 4:2:0
Bit depth                                : 8 bits
Scan type                                : Progressive
Bits/(Pixel*Frame)                       : 0.236
Stream size                              : 1.51 GiB (89%)
Language                                 : English (US)
Default                                  : Yes
Forced                                   : No
Color range                              : Limited
Color primaries                          : BT.709
Transfer characteristics                 : BT.709
Matrix coefficients                      : BT.709

Audio
ID                                       : 2
Format                                   : E-AC-3 JOC
Format/Info                              : Enhanced AC-3 with Joint Object Coding
Commercial name                          : Dolby Digital Plus with Dolby Atmos
Codec ID                                 : A_EAC3
Duration                                 : 58 min 49 s
Bit rate mode                            : Constant
Bit rate                                 : 448 kb/s
Channel(s)                               : 6 channels
Channel layout                           : L R C LFE Ls Rs
Sampling rate                            : 48.0 kHz
Frame rate                               : 31.250 FPS (1536 SPF)
Compression mode                         : Lossy
Stream size                              : 189 MiB (11%)
Language                                 : English (US)
Service kind                             : Complete Main
Default                                  : Yes
Forced                                   : No
Complexity index                         : 16
Number of dynamic objects                : 15
Bed channel count                        : 1 channel
Bed channel configuration                : LFE

Text #1
ID                                       : 3
Format                                   : UTF-8
Codec ID                                 : S_TEXT/UTF8
Codec ID/Info                            : UTF-8 Plain Text
Duration                                 : 56 min 32 s
Bit rate                                 : 51 b/s
Frame rate                               : 0.209 FPS
Count of elements                        : 710
Stream size                              : 21.3 KiB (0%)
Language                                 : English (US)
Default                                  : No
Forced                                   : No

Text #2
ID                                       : 4
Format                                   : UTF-8
Codec ID                                 : S_TEXT/UTF8
Codec ID/Info                            : UTF-8 Plain Text
Duration                                 : 56 min 32 s
Bit rate                                 : 58 b/s
Frame rate                               : 0.240 FPS
Count of elements                        : 814
Stream size                              : 24.3 KiB (0%)
Title                                    : SDH
Language                                 : English (US)
Default                                  : No
Forced                                   : No

Text #3
ID                                       : 5
Format                                   : UTF-8
Codec ID                                 : S_TEXT/UTF8
Codec ID/Info                            : UTF-8 Plain Text
Duration                                 : 56 min 27 s
Bit rate                                 : 71 b/s
Frame rate                               : 0.180 FPS
Count of elements                        : 609
Stream size                              : 29.6 KiB (0%)
Language                                 : Arabic (001)
Default                                  : No
Forced                                   : No

Text #4
ID                                       : 6
Format                                   : UTF-8
Codec ID                                 : S_TEXT/UTF8
Codec ID/Info                            : UTF-8 Plain Text
Duration                                 : 56 min 27 s
Bit rate                                 : 39 b/s
Frame rate                               : 0.182 FPS
Count of elements                        : 616
Stream size                              : 16.3 KiB (0%)
Title                                    : European
Language                                 : Catalan (ES)
Default                                  : No
Forced                                   : No

Text #5
ID                                       : 7
Format                                   : UTF-8
Codec ID                                 : S_TEXT/UTF8
Codec ID/Info                            : UTF-8 Plain Text
Duration                                 : 56 min 27 s
Bit rate                                 : 41 b/s
Frame rate                               : 0.180 FPS
Count of elements                        : 609
Stream size                              : 17.3 KiB (0%)
Language                                 : Czech (CZ)
Default                                  : No
Forced                                   : No

Text #6
ID                                       : 8
Format                                   : UTF-8
Codec ID                                 : S_TEXT/UTF8
Codec ID/Info                            : UTF-8 Plain Text
Duration                                 : 56 min 27 s
Bit rate                                 : 39 b/s
Frame rate                               : 0.179 FPS
Count of elements                        : 607
Stream size                              : 16.1 KiB (0%)
Language                                 : Danish (DK)
Default                                  : No
Forced                                   : No

Text #7
ID                                       : 9
Format                                   : UTF-8
Codec ID                                 : S_TEXT/UTF8
Codec ID/Info                            : UTF-8 Plain Text
Duration                                 : 56 min 27 s
Bit rate                                 : 39 b/s
Frame rate                               : 0.179 FPS
Count of elements                        : 607
Stream size                              : 16.4 KiB (0%)
Language                                 : German (DE)
Default                                  : No
Forced                                   : No

Text #8
ID                                       : 10
Format                                   : UTF-8
Codec ID                                 : S_TEXT/UTF8
Codec ID/Info                            : UTF-8 Plain Text
Duration                                 : 56 min 27 s
Bit rate                                 : 73 b/s
Frame rate                               : 0.183 FPS
Count of elements                        : 621
Stream size                              : 30.3 KiB (0%)
Language                                 : Greek (GR)
Default                                  : No
Forced                                   : No

Text #9
ID                                       : 11
Format                                   : UTF-8
Codec ID                                 : S_TEXT/UTF8
Codec ID/Info                            : UTF-8 Plain Text
Duration                                 : 56 min 27 s
Bit rate                                 : 40 b/s
Frame rate                               : 0.183 FPS
Count of elements                        : 619
Stream size                              : 16.9 KiB (0%)
Title                                    : Latin American
Language                                 : Spanish (Latin America)
Default                                  : No
Forced                                   : No

Text #10
ID                                       : 12
Format                                   : UTF-8
Codec ID                                 : S_TEXT/UTF8
Codec ID/Info                            : UTF-8 Plain Text
Duration                                 : 56 min 27 s
Bit rate                                 : 39 b/s
Frame rate                               : 0.183 FPS
Count of elements                        : 620
Stream size                              : 16.5 KiB (0%)
Language                                 : Spanish (ES)
Default                                  : No
Forced                                   : No

Text #11
ID                                       : 13
Format                                   : UTF-8
Codec ID                                 : S_TEXT/UTF8
Codec ID/Info                            : UTF-8 Plain Text
Duration                                 : 56 min 27 s
Bit rate                                 : 37 b/s
Frame rate                               : 0.180 FPS
Count of elements                        : 610
Stream size                              : 15.6 KiB (0%)
Title                                    : European
Language                                 : Basque (ES)
Default                                  : No
Forced                                   : No

Text #12
ID                                       : 14
Format                                   : UTF-8
Codec ID                                 : S_TEXT/UTF8
Codec ID/Info                            : UTF-8 Plain Text
Duration                                 : 56 min 27 s
Bit rate                                 : 38 b/s
Frame rate                               : 0.182 FPS
Count of elements                        : 618
Stream size                              : 15.9 KiB (0%)
Language                                 : Finnish (FI)
Default                                  : No
Forced                                   : No

Text #13
ID                                       : 15
Format                                   : UTF-8
Codec ID                                 : S_TEXT/UTF8
Codec ID/Info                            : UTF-8 Plain Text
Duration                                 : 56 min 27 s
Bit rate                                 : 43 b/s
Frame rate                               : 0.183 FPS
Count of elements                        : 620
Stream size                              : 18.0 KiB (0%)
Title                                    : Canadian
Language                                 : French (CA)
Default                                  : No
Forced                                   : No

Text #14
ID                                       : 16
Format                                   : UTF-8
Codec ID                                 : S_TEXT/UTF8
Codec ID/Info                            : UTF-8 Plain Text
Duration                                 : 56 min 27 s
Bit rate                                 : 37 b/s
Frame rate                               : 0.183 FPS
Count of elements                        : 620
Stream size                              : 15.5 KiB (0%)
Title                                    : European
Language                                 : Galician (ES)
Default                                  : No
Forced                                   : No

Text #15
ID                                       : 17
Format                                   : UTF-8
Codec ID                                 : S_TEXT/UTF8
Codec ID/Info                            : UTF-8 Plain Text
Duration                                 : 56 min 27 s
Bit rate                                 : 64 b/s
Frame rate                               : 0.184 FPS
Count of elements                        : 623
Stream size                              : 26.7 KiB (0%)
Language                                 : Hebrew (IL)
Default                                  : No
Forced                                   : No

Text #16
ID                                       : 18
Format                                   : UTF-8
Codec ID                                 : S_TEXT/UTF8
Codec ID/Info                            : UTF-8 Plain Text
Duration                                 : 56 min 27 s
Bit rate                                 : 99 b/s
Frame rate                               : 0.183 FPS
Count of elements                        : 619
Stream size                              : 41.2 KiB (0%)
Language                                 : Hindi (IN)
Default                                  : No
Forced                                   : No

Text #17
ID                                       : 19
Format                                   : UTF-8
Codec ID                                 : S_TEXT/UTF8
Codec ID/Info                            : UTF-8 Plain Text
Duration                                 : 56 min 27 s
Bit rate                                 : 43 b/s
Frame rate                               : 0.183 FPS
Count of elements                        : 619
Stream size                              : 17.9 KiB (0%)
Language                                 : Hungarian (HU)
Default                                  : No
Forced                                   : No

Text #18
ID                                       : 20
Format                                   : UTF-8
Codec ID                                 : S_TEXT/UTF8
Codec ID/Info                            : UTF-8 Plain Text
Duration                                 : 56 min 27 s
Bit rate                                 : 39 b/s
Frame rate                               : 0.183 FPS
Count of elements                        : 620
Stream size                              : 16.5 KiB (0%)
Language                                 : Indonesian (ID)
Default                                  : No
Forced                                   : No

Text #19
ID                                       : 21
Format                                   : UTF-8
Codec ID                                 : S_TEXT/UTF8
Codec ID/Info                            : UTF-8 Plain Text
Duration                                 : 56 min 27 s
Bit rate                                 : 40 b/s
Frame rate                               : 0.182 FPS
Count of elements                        : 618
Stream size                              : 16.7 KiB (0%)
Language                                 : Italian (IT)
Default                                  : No
Forced                                   : No

Text #20
ID                                       : 22
Format                                   : UTF-8
Codec ID                                 : S_TEXT/UTF8
Codec ID/Info                            : UTF-8 Plain Text
Duration                                 : 56 min 27 s
Bit rate                                 : 36 b/s
Frame rate                               : 0.174 FPS
Count of elements                        : 591
Stream size                              : 15.3 KiB (0%)
Language                                 : Japanese (JP)
Default                                  : No
Forced                                   : No

Text #21
ID                                       : 23
Format                                   : UTF-8
Codec ID                                 : S_TEXT/UTF8
Codec ID/Info                            : UTF-8 Plain Text
Duration                                 : 56 min 27 s
Bit rate                                 : 104 b/s
Frame rate                               : 0.184 FPS
Count of elements                        : 622
Stream size                              : 43.3 KiB (0%)
Language                                 : Kannada (IN)
Default                                  : No
Forced                                   : No

Text #22
ID                                       : 24
Format                                   : UTF-8
Codec ID                                 : S_TEXT/UTF8
Codec ID/Info                            : UTF-8 Plain Text
Duration                                 : 56 min 27 s
Bit rate                                 : 52 b/s
Frame rate                               : 0.184 FPS
Count of elements                        : 623
Stream size                              : 21.8 KiB (0%)
Language                                 : Korean (KR)
Default                                  : No
Forced                                   : No

Text #23
ID                                       : 25
Format                                   : UTF-8
Codec ID                                 : S_TEXT/UTF8
Codec ID/Info                            : UTF-8 Plain Text
Duration                                 : 56 min 27 s
Bit rate                                 : 135 b/s
Frame rate                               : 0.181 FPS
Count of elements                        : 614
Stream size                              : 56.0 KiB (0%)
Language                                 : Malayalam (IN)
Default                                  : No
Forced                                   : No

Text #24
ID                                       : 26
Format                                   : UTF-8
Codec ID                                 : S_TEXT/UTF8
Codec ID/Info                            : UTF-8 Plain Text
Duration                                 : 56 min 27 s
Bit rate                                 : 41 b/s
Frame rate                               : 0.177 FPS
Count of elements                        : 601
Stream size                              : 17.2 KiB (0%)
Language                                 : Malay (MY)
Default                                  : No
Forced                                   : No

Text #25
ID                                       : 27
Format                                   : UTF-8
Codec ID                                 : S_TEXT/UTF8
Codec ID/Info                            : UTF-8 Plain Text
Duration                                 : 56 min 27 s
Bit rate                                 : 38 b/s
Frame rate                               : 0.182 FPS
Count of elements                        : 618
Stream size                              : 15.9 KiB (0%)
Language                                 : Norwegian Bokmal (NO)
Default                                  : No
Forced                                   : No

Text #26
ID                                       : 28
Format                                   : UTF-8
Codec ID                                 : S_TEXT/UTF8
Codec ID/Info                            : UTF-8 Plain Text
Duration                                 : 56 min 27 s
Bit rate                                 : 38 b/s
Frame rate                               : 0.173 FPS
Count of elements                        : 586
Stream size                              : 15.7 KiB (0%)
Language                                 : Dutch (NL)
Default                                  : No
Forced                                   : No

Text #27
ID                                       : 29
Format                                   : UTF-8
Codec ID                                 : S_TEXT/UTF8
Codec ID/Info                            : UTF-8 Plain Text
Duration                                 : 56 min 27 s
Bit rate                                 : 38 b/s
Frame rate                               : 0.178 FPS
Count of elements                        : 602
Stream size                              : 15.9 KiB (0%)
Language                                 : Polish (PL)
Default                                  : No
Forced                                   : No

Text #28
ID                                       : 30
Format                                   : UTF-8
Codec ID                                 : S_TEXT/UTF8
Codec ID/Info                            : UTF-8 Plain Text
Duration                                 : 56 min 27 s
Bit rate                                 : 41 b/s
Frame rate                               : 0.183 FPS
Count of elements                        : 621
Stream size                              : 17.1 KiB (0%)
Title                                    : Brazilian
Language                                 : Portuguese (BR)
Default                                  : No
Forced                                   : No

Text #29
ID                                       : 31
Format                                   : UTF-8
Codec ID                                 : S_TEXT/UTF8
Codec ID/Info                            : UTF-8 Plain Text
Duration                                 : 56 min 27 s
Bit rate                                 : 43 b/s
Frame rate                               : 0.182 FPS
Count of elements                        : 617
Stream size                              : 18.0 KiB (0%)
Language                                 : Romanian (RO)
Default                                  : No
Forced                                   : No

Text #30
ID                                       : 32
Format                                   : UTF-8
Codec ID                                 : S_TEXT/UTF8
Codec ID/Info                            : UTF-8 Plain Text
Duration                                 : 56 min 27 s
Bit rate                                 : 39 b/s
Frame rate                               : 0.182 FPS
Count of elements                        : 618
Stream size                              : 16.3 KiB (0%)
Language                                 : Swedish (SE)
Default                                  : No
Forced                                   : No

Text #31
ID                                       : 33
Format                                   : UTF-8
Codec ID                                 : S_TEXT/UTF8
Codec ID/Info                            : UTF-8 Plain Text
Duration                                 : 56 min 27 s
Bit rate                                 : 105 b/s
Frame rate                               : 0.184 FPS
Count of elements                        : 622
Stream size                              : 43.5 KiB (0%)
Language                                 : Tamil (IN)
Default                                  : No
Forced                                   : No

Text #32
ID                                       : 34
Format                                   : UTF-8
Codec ID                                 : S_TEXT/UTF8
Codec ID/Info                            : UTF-8 Plain Text
Duration                                 : 56 min 27 s
Bit rate                                 : 104 b/s
Frame rate                               : 0.184 FPS
Count of elements                        : 623
Stream size                              : 43.2 KiB (0%)
Language                                 : Telugu (IN)
Default                                  : No
Forced                                   : No

Text #33
ID                                       : 35
Format                                   : UTF-8
Codec ID                                 : S_TEXT/UTF8
Codec ID/Info                            : UTF-8 Plain Text
Duration                                 : 56 min 27 s
Bit rate                                 : 101 b/s
Frame rate                               : 0.184 FPS
Count of elements                        : 623
Stream size                              : 42.0 KiB (0%)
Language                                 : Thai (TH)
Default                                  : No
Forced                                   : No

Text #34
ID                                       : 36
Format                                   : UTF-8
Codec ID                                 : S_TEXT/UTF8
Codec ID/Info                            : UTF-8 Plain Text
Duration                                 : 56 min 27 s
Bit rate                                 : 41 b/s
Frame rate                               : 0.183 FPS
Count of elements                        : 619
Stream size                              : 17.1 KiB (0%)
Language                                 : Turkish (TR)
Default                                  : No
Forced                                   : No

Text #35
ID                                       : 37
Format                                   : UTF-8
Codec ID                                 : S_TEXT/UTF8
Codec ID/Info                            : UTF-8 Plain Text
Duration                                 : 56 min 27 s
Bit rate                                 : 41 b/s
Frame rate                               : 0.184 FPS
Count of elements                        : 622
Stream size                              : 17.1 KiB (0%)
Title                                    : Simplified
Language                                 : Chinese (Simplified)
Default                                  : No
Forced                                   : No

Text #36
ID                                       : 38
Format                                   : UTF-8
Codec ID                                 : S_TEXT/UTF8
Codec ID/Info                            : UTF-8 Plain Text
Duration                                 : 56 min 27 s
Bit rate                                 : 39 b/s
Frame rate                               : 0.184 FPS
Count of elements                        : 622
Stream size                              : 16.3 KiB (0%)
Title                                    : Traditional
Language                                 : Chinese (Traditional)
Default                                  : No
Forced                                   : No

Menu
00:00:00.000                             : en:Scene 1
00:58:45.000                             : en:Outro



Download
File Container: MKV
Video/Audio Codec: H264 (HIGH) EAC3
Video Resolution: 1248x520

1 Response to "[RR/NF/CU] Outer Range S02E06 Do-Si-Do 720p AMZN WEB-DL DDP5 1 Atmos H 264-FLUX (1.7GB)"
05/16/24
12:23:12
ReadyPlayerOne

Thank You

Please Login to post a comment.
If you don't have any account, please Register.
  • Subscribe my Feeds
  • Facebook
Encoding Queue:  x264  x265

Latest Episodes

Popular Movies and TV Shows

  • House of the Dragon
  • When Calls the Heart
  • Caracas
  • Cry-Baby
  • Enter Three Dragons
  • Cult Massacre: One Day in Jonestown
  • NCIS
  • Platonic
  • Riddick
  • The Einstein Challenge
  • Return to Never Land
  • Killer Body Count
  • Watch What Happens Live with Andy Cohen
  • Mayor of Kingstown
  • Walker
  • Two Way Stretch
  • Cats in the Museum
  • Jack Whitehall: Settle Down
  • The Loud House
  • Interview with the Vampire
  • Hotel Cocaine
  • Octopussy
  • Daaaaaali!
  • Calamity Jane
  • The Daily Show

Recent Comments

Archives