Sign Up   |   Sign In  

Announcements

Want to support us?
Buy a RapidRAR account from our resellers:
Buy or renew a NitroFlare account via THIS LINK

04/20

2017

No

Comments

Outsiders S02E12 WEBRip x264-RARBG
[RR/NF/UL/OL/OLw/UR/CU]
Size: 412MB mp4 H264 (HIGH) (AVC1) / AAC (LC) (MP4A) 720x400

Outsiders
Click on the image to see full size
[RR/NF/UL/OL/OLw/UR/CU] Outsiders S02E12 WEBRip x264-RARBG (412MB) - Snapshot 1[RR/NF/UL/OL/OLw/UR/CU] Outsiders S02E12 WEBRip x264-RARBG (412MB) - Snapshot 2
File Information
[URL]http://www.imdb.com/title/tt4816626/[/URL]
[screenshots]
[URL=http://imagecurl.com/viewer.php?file=12753463050825419777.png][IMG]http://imagecurl.com/images/12753463050825419777_thumb.png[/IMG][/URL]
[URL=http://imagecurl.com/viewer.php?file=12412901779023274476.png][IMG]http://imagecurl.com/images/12412901779023274476_thumb.png[/IMG][/URL]
[URL=http://imagecurl.com/viewer.php?file=47217711986072914804.png][IMG]http://imagecurl.com/images/47217711986072914804_thumb.png[/IMG][/URL]
[URL=http://imagecurl.com/viewer.php?file=12079039080010659658.png][IMG]http://imagecurl.com/images/12079039080010659658_thumb.png[/IMG][/URL]

[/screenshots]


[mediainfo]
Video
ID                                       : 1
Format                                   : AVC
Format/Info                              : Advanced Video Codec
Format profile                           : [email protected]
Format settings, CABAC                   : Yes
Format settings, ReFrames                : 5 frames
Codec ID                                 : avc1
Codec ID/Info                            : Advanced Video Coding
Duration                                 : 47mn 24s
Bit rate                                 : 1 100 Kbps
Width                                    : 720 pixels
Height                                   : 400 pixels
Display aspect ratio                     : 16:9
Frame rate mode                          : Constant
Frame rate                               : 23.976 (24000/1001) fps
Color space                              : YUV
Chroma subsampling                       : 4:2:0
Bit depth                                : 8 bits
Scan type                                : Progressive
Bits/(Pixel*Frame)                       : 0.159
Stream size                              : 367 MiB (89%)
Title                                    : RARBG.COM - Outsiders.S02E12.WEBRip.x264-RARBG
Writing library                          : x264 core 148 r2597M e86f3a1
 Encoding settings                        : cabac=1 / ref=5 / deblock=1:-1:-1 / analyse=0x3:0x113 / me=umh / subme=9 / psy=1 / psy_rd=1.00:0.15 / mixed_ref=1 / me_range=16 / chroma_me=1 / trellis=2 / 8x8dct=1 / cqm=0 / deadz / fast pskip=1 / chroma_qp_offset=-3 / threads=12 / lookahead_threads=1 / sliced_threads=0 / nr=0 / decimate=1 / interlaced=0 / bluray_compat=0 / c / bframes=3 / b_pyramid=2 / b_adapt=2 / b_bias=0 / direct=3 / weightb=1 / open_gop=0 / weightp=2 / keyint=250 / keyint_min=23 / scenecut=40 / intra_refresh=0 / rc_lookahead=50 / rc=abr / mbtree=1 / bitrate=1100 / ratetol=1.0 / qcomp=0.60 / qpmin=0 / qpmax=69 / qpstep=4 / ip_ratio=1.40 / aq=1:1.00
Encoded date                             : UTC 2017-04-20 05:11:23
Tagged date                              : UTC 2017-04-20 05:11:23

Audio
ID                                       : 2
Format                                   : AAC
Format/Info                              : Advanced Audio Codec
Format profile                           : LC
Codec ID                                 : 40
Duration                                 : 47mn 24s
Duration_LastFrame                       : -11ms
Bit rate mode                            : Constant
Bit rate                                 : 128 Kbps
Channel(s)                               : 2 channels
Channel positions                        : Front: L R
Sampling rate                            : 48.0 KHz
Frame rate                               : 46.875 fps (1024 spf)
Compression mode                         : Lossy
Stream size                              : 43.4 MiB (11%)
Title                                    : RARBG.COM - Outsiders.S02E12.WEBRip.x264-RARBG
Language                                 : English
Default                                  : Yes
Alternate group                          : 1
Encoded date                             : UTC 2017-04-20 05:11:23
Tagged date                              : UTC 2017-04-20 05:11:23



[/mediainfo]
Download
File Container: MP4
Video/Audio Codec: H264 (HIGH) (AVC1) AAC (LC) (MP4A)
Video Resolution: 720x400
 
 
 
 
 
 
Watch Online [MP4]

Show us some love

Leave a Comment

  • (never displayed)
  •  
        Members don't see captchas. Sign Up / Sign In
  • Notify me via email when someone responds.
  • Subscribe my Feeds
  • Facebook

Latest Episodes

Popular Movies and TV Shows

  • Live from Space
  • A Ghost Story
  • American Horror Story
  • Being Mary Jane
  • Despicable Me 3
  • I am Frankie
  • Shortland Street
  • Meet the Hitlers
  • The Tonight Show Starring Jimmy Fallon
  • Broad City
  • It Stains the Sands Red
  • The Bad Batch
  • Somewhere Between
  • Doctor Foster
  • Touch
  • Jerry Before Seinfeld
  • The Book of Henry
  • The Veil
  • Midnight, Texas
  • People of Earth
  • Adventure Time with Finn & Jake
  • The Damned: Don't You Wish That We Were Dead
  • Escape Room
  • The 300 Spartans
  • The Orville

Recent Comments