Sign Up   |   Sign In  

Announcements

Want to support us?
Buy a RapidRAR account from our resellers:
Buy or renew a NitroFlare account via THIS LINK

04/19

2017

No

Comments

Pretty Little Liars S07E11 WEB-DL x264-RARBG
[RR/NF/UL/OL/OLw/UR/CU]
Size: 258MB mp4 H264 (HIGH) (AVC1) / AAC (LC) (MP4A) 720x400

Pretty Little Liars
Click on the image to see full size
[RR/NF/UL/OL/OLw/UR/CU] Pretty Little Liars S07E11 WEB-DL x264-RARBG (258MB) - Snapshot 1[RR/NF/UL/OL/OLw/UR/CU] Pretty Little Liars S07E11 WEB-DL x264-RARBG (258MB) - Snapshot 2
File Information
[URL]http://www.imdb.com/title/tt1578873/[/URL]
[screenshots]
[URL=http://imagecurl.com/viewer.php?file=34366661590785474980.png][IMG]http://imagecurl.com/images/34366661590785474980_thumb.png[/IMG][/URL]
[URL=http://imagecurl.com/viewer.php?file=07398837762452215366.png][IMG]http://imagecurl.com/images/07398837762452215366_thumb.png[/IMG][/URL]
[URL=http://imagecurl.com/viewer.php?file=52178033703333907583.png][IMG]http://imagecurl.com/images/52178033703333907583_thumb.png[/IMG][/URL]
[URL=http://imagecurl.com/viewer.php?file=20232306054647429879.png][IMG]http://imagecurl.com/images/20232306054647429879_thumb.png[/IMG][/URL]

[/screenshots]


[mediainfo]
Video
ID                                       : 1
Format                                   : AVC
Format/Info                              : Advanced Video Codec
Format profile                           : [email protected]
Format settings, CABAC                   : Yes
Format settings, ReFrames                : 5 frames
Codec ID                                 : avc1
Codec ID/Info                            : Advanced Video Coding
Duration                                 : 42mn 47s
Bit rate                                 : 711 Kbps
Width                                    : 720 pixels
Height                                   : 400 pixels
Display aspect ratio                     : 16:9
Original display aspect ratio            : 16:9
Frame rate mode                          : Constant
Frame rate                               : 23.976 (23976/1000) fps
Color space                              : YUV
Chroma subsampling                       : 4:2:0
Bit depth                                : 8 bits
Scan type                                : Progressive
Bits/(Pixel*Frame)                       : 0.103
Stream size                              : 218 MiB (84%)
Title                                    : RARBG.COM - Pretty.Little.Liars.S07E11.WEB-DL.x264-RARBG
Writing library                          : x264 core 148 r2597M e86f3a1
 Encoding settings                        : cabac=1 / ref=5 / deblock=1:-1:-1 / analyse=0x3:0x113 / me=umh / subme=9 / psy=1 / psy_rd=1.00:0.15 / mixed_ref=1 / me_range=16 / chroma_me=1 / trellis=2 / 8x8dct=1 / cqm=0 / deadz / fast pskip=1 / chroma_qp_offset=-3 / threads=12 / lookahead_threads=1 / sliced_threads=0 / nr=0 / decimate=1 / interlaced=0 / bluray_compat=0 / c / bframes=3 / b_pyramid=2 / b_adapt=2 / b_bias=0 / direct=3 / weightb=1 / open_gop=0 / weightp=2 / keyint=250 / keyint_min=23 / scenecut=40 / intra_refresh=0 / rc_lookahead=50 / rc=crf / mbtree=1 / crf=19.0 / qcomp=0.60 / qpmin=0 / qpmax=69 / qpstep=4 / ip_ratio=1.40 / aq=1:1.00
Language                                 : English
Encoded date                             : UTC 2017-04-19 23:10:52
Tagged date                              : UTC 2017-04-19 23:10:52

Audio
ID                                       : 2
Format                                   : AAC
Format/Info                              : Advanced Audio Codec
Format profile                           : LC
Codec ID                                 : 40
Duration                                 : 42mn 47s
Bit rate mode                            : Constant
Bit rate                                 : 128 Kbps
Channel(s)                               : 2 channels
Channel positions                        : Front: L R
Sampling rate                            : 48.0 KHz
Frame rate                               : 46.875 fps (1024 spf)
Compression mode                         : Lossy
Stream size                              : 39.2 MiB (15%)
Title                                    : RARBG.COM - Pretty.Little.Liars.S07E11.WEB-DL.x264-RARBG
Language                                 : English
Default                                  : Yes
Alternate group                          : 1
Encoded date                             : UTC 2017-04-19 23:10:52
Tagged date                              : UTC 2017-04-19 23:10:52



[/mediainfo]
Download
File Container: MP4
Video/Audio Codec: H264 (HIGH) (AVC1) AAC (LC) (MP4A)
Video Resolution: 720x400
 
 
 
 
 
 
Watch Online [MP4]

Show us some love

Leave a Comment

  • (never displayed)
  •  
        Members don't see captchas. Sign Up / Sign In
  • Notify me via email when someone responds.
  • Subscribe my Feeds
  • Facebook

Latest Episodes

Popular Movies and TV Shows

  • iZombie
  • Wrecked
  • Animal Kingdom
  • The Lost City of Z
  • Black Butterfly
  • Their Finest
  • Pretty Little Liars
  • Downward Dog
  • Broken
  • Alien: Covenant
  • After School Special
  • Avalon
  • Preacher
  • Glastonbury 2017
  • Stitchers
  • Transformers: The Last Knight
  • Don't Hang Up
  • Guardians of the Galaxy Vol. 2
  • Shadowhunters
  • ExPatriot
  • Grey Lady
  • Smurfs: The Lost Village
  • Fear the Walking Dead
  • Silicon Valley
  • Twin Peaks

Recent Comments

  • TASHA025: Please, can you add "Pretty.Little.Liars.S07.Special-A-List.Wrap.Party.480p.HDTV.x264-RMTeam&qu...
  • çuçu: Also waiting for "Genius 2017 S01E10 720p HDTV"... @Byala "Genius S01E09 720p HDTV x2...
  • çuçu:

    Still waiting for a proper/repack version...

  • pik-nik:

    glitch at 29:40 !!!

  • pik-nik:

    glitch at 29:40 !!!

  • pik-nik:

    Daytime Divas S01E04 480p HDTV x264-RMTeam = glitch at 29:40 !!!

  • pik-nik:

    Daytime Divas S01E04 Shut It Down HDTV x264-CRiMS at 29:40 !!!

  • pik-nik:

    Daytime Divas S01E04 720p HDTV x264-CRiMS at 29:40 !!!

  • kombatronx:

    Can you please add a subtitle for this movie in English? Thank you.

  • thaone:

    Thanks