Sign Up   |   Sign In  
WalkerWWE NXTThe Bold and the BeautifulColdplay Live in São PauloPulp FictionInside No. 9The Artifice GirlOriginFiennes Return to the WildThe PrimevalsThe Young and the RestlessThe AcolytePresumed InnocentDark MatterMysteries of the Terracotta WarriorsNinja TerminatorCamille 2000The Big Door PrizeTryingAcapulcoHow Music Got FreeLost SoulzThe Beast in the JungleThe Daily ShowWWE Smackdown!

Announcements

05/24

2024

1

Comments

SOUTH PARK S00E49 THE END OF OBESITY 1080p AMZN WEB-DL DDP5 1 H 264-FLUX
[RR/NF/CU]
Size: 1.5GB mkv H264 (HIGH) / EAC3  HD  1920x1080

South Park
File Information
[img]http://lookpic.com/cdn/i2/t/0524202406403679-1.jpg[/img]
[img]http://lookpic.com/cdn/i2/t/0524202406403679-2.jpg[/img]
[img]http://lookpic.com/cdn/i2/t/0524202406403679-3.jpg[/img]

General
Unique ID                                : 141833762116123381041409761122570761754 (0x6AB4305F94CB595D38873A3607BC761A)
Complete name                            : SOUTH PARK S00E49 THE END OF OBESITY 1080p AMZN WEB-DL DDP5 1 H 264-FLUX.mkv
Format                                   : Matroska
Format version                           : Version 4
File size                                : 1.50 GiB
Duration                                 : 50 min 28 s
Overall bit rate                         : 4 245 kb/s
Frame rate                               : 23.976 FPS
Writing application                      : mkvmerge v79.0 ('Funeral Pyres') 64-bit
Writing library                          : libebml v1.4.4 + libmatroska v1.7.1

Video
ID                                       : 1
Format                                   : AVC
Format/Info                              : Advanced Video Codec
Format profile                           : High@L4
Format settings                          : CABAC / 4 Ref Frames
Format settings, CABAC                   : Yes
Format settings, Reference frames        : 4 frames
Codec ID                                 : V_MPEG4/ISO/AVC
Duration                                 : 50 min 28 s
Bit rate mode                            : Constant
Bit rate                                 : 3 603 kb/s
Nominal bit rate                         : 10 000 kb/s
Width                                    : 1 920 pixels
Height                                   : 1 080 pixels
Display aspect ratio                     : 16:9
Frame rate mode                          : Constant
Frame rate                               : 23.976 (24000/1001) FPS
Color space                              : YUV
Chroma subsampling                       : 4:2:0
Bit depth                                : 8 bits
Scan type                                : Progressive
Bits/(Pixel*Frame)                       : 0.072
Stream size                              : 1.27 GiB (85%)
Language                                 : English (US)
Default                                  : Yes
Forced                                   : No
Color range                              : Limited
Color primaries                          : BT.709
Transfer characteristics                 : BT.709
Matrix coefficients                      : BT.709

Audio
ID                                       : 2
Format                                   : E-AC-3
Format/Info                              : Enhanced AC-3
Commercial name                          : Dolby Digital Plus
Codec ID                                 : A_EAC3
Duration                                 : 50 min 28 s
Bit rate mode                            : Constant
Bit rate                                 : 640 kb/s
Channel(s)                               : 6 channels
Channel layout                           : L R C LFE Ls Rs
Sampling rate                            : 48.0 kHz
Frame rate                               : 31.250 FPS (1536 SPF)
Compression mode                         : Lossy
Stream size                              : 231 MiB (15%)
Language                                 : English (US)
Service kind                             : Complete Main
Default                                  : Yes
Forced                                   : No

Text #1
ID                                       : 3
Format                                   : UTF-8
Codec ID                                 : S_TEXT/UTF8
Codec ID/Info                            : UTF-8 Plain Text
Duration                                 : 49 min 59 s
Bit rate                                 : 96 b/s
Frame rate                               : 0.352 FPS
Count of elements                        : 1057
Stream size                              : 35.4 KiB (0%)
Language                                 : English (US)
Default                                  : No
Forced                                   : No

Text #2
ID                                       : 4
Format                                   : UTF-8
Codec ID                                 : S_TEXT/UTF8
Codec ID/Info                            : UTF-8 Plain Text
Duration                                 : 50 min 23 s
Bit rate                                 : 99 b/s
Frame rate                               : 0.373 FPS
Count of elements                        : 1129
Stream size                              : 36.9 KiB (0%)
Title                                    : SDH
Language                                 : English (US)
Default                                  : No
Forced                                   : No

Menu
00:00:00.000                             : en:Scene 1
00:49:48.958                             : en:End Credits



Download
File Container: MKV
Video/Audio Codec: H264 (HIGH) EAC3
Video Resolution: 1920x1080

1 Response to "[RR/NF/CU] SOUTH PARK S00E49 THE END OF OBESITY 1080p AMZN WEB-DL DDP5 1 H 264-FLUX (1.5GB)"
05/24/24
14:06:25
ReadyPlayerOne

Thank You

Please Login to post a comment.
If you don't have any account, please Register.
  • Subscribe my Feeds
  • Facebook
Encoding Queue:  x264  x265

Latest Episodes

Popular Movies and TV Shows

  • Walker
  • WWE NXT
  • The Bold and the Beautiful
  • Coldplay Live in São Paulo
  • Pulp Fiction
  • Inside No. 9
  • The Artifice Girl
  • Origin
  • Fiennes Return to the Wild
  • The Primevals
  • The Young and the Restless
  • The Acolyte
  • Presumed Innocent
  • Dark Matter
  • Mysteries of the Terracotta Warriors
  • Ninja Terminator
  • Camille 2000
  • The Big Door Prize
  • Trying
  • Acapulco
  • How Music Got Free
  • Lost Soulz
  • The Beast in the Jungle
  • The Daily Show
  • WWE Smackdown!

Recent Comments

  • KissclTum: [url=https://kisstom.ru/prices]имплант с коронкой цена кисс [/url] Tegs: и...
  • Diggety247:

    BrokenHanded, Try using a DL manager.

  • BrokenHanded: clicknupload does not seem to work for past few days. keep getting an error saying the site is sendi...
  • Bud: Helps if you actually add these to the "Late Night with Seth Meyers" page too...
  • rambaldi70:

    Hy! Right now, my download speed : 1 Mb/s
    this is ok?
    Tx answer

  • Cinque_Persson: At 183 MB this had to be something completely different. In fact it's just the main actors commentin...
  • meyat74:

    my bad, should be full season

  • Oscar2:

    Halo "is" a good show

  • MeH:

    "one of the most impressive scenes"

  • rappet:

    Unfortunately, episode 2 not playing and episode 3 half missing (only 37 minutes long).

  • Anovani:

    Nice 1

  • shark:

    Will there be a sequel?

  • sjors:

    This release in in Russian with Russian subs. No English.

  • RapidRabbit98: I'll ask again Forged in Fire Series 11 episode 1 - anyone have it?

Archives