Sign Up   |   Sign In  
The Fall GuyBoy Kills WorldThe VeilAll AmericanSeize Them!Better Call SaulStress PositionsYoung SheldonInside the Force: 24/7Below DeckClub ZeroHangs Upon NothingThe EqualizerThe Name of the RoseTrackerWhen Calls the HeartDevil in the FleshTMZ Presents: The Downfall of DiddyS.W.A.T.The SimpsonsThe SympathizerGolden KamuyTales of Ordinary MadnessArthur the KingBeacon 23

Announcements

04/11

2024

1

Comments

Star Trek Discovery S05E03 Jinaal 720p AMZN WEB-DL DDP5 1 H 264-FLUX
[RR/NF/CU]
Size: 1.1GB mkv H264 (HIGH) / EAC3  HD  1248x520

Star Trek: Discovery
File Information
[img]http://lookpic.com/cdn/i2/t/0411202410244789-1.jpg[/img]
[img]http://lookpic.com/cdn/i2/t/0411202410244789-2.jpg[/img]
[img]http://lookpic.com/cdn/i2/t/0411202410244789-3.jpg[/img]

General
Unique ID                                : 44614672045939931069879287437200980591 (0x219079293885085B61187E3F06A7FA6F)
Complete name                            : Star Trek Discovery S05E03 Jinaal 720p AMZN WEB-DL DDP5 1 H 264-FLUX.mkv
Format                                   : Matroska
Format version                           : Version 4
File size                                : 1.14 GiB
Duration                                 : 55 min 34 s
Overall bit rate                         : 2 935 kb/s
Frame rate                               : 23.976 FPS
Writing application                      : mkvmerge v81.0 ('Milliontown') 64-bit
Writing library                          : libebml v1.4.4 + libmatroska v1.7.1

Video
ID                                       : 1
Format                                   : AVC
Format/Info                              : Advanced Video Codec
Format profile                           : High@L3.1
Format settings                          : CABAC / 4 Ref Frames
Format settings, CABAC                   : Yes
Format settings, Reference frames        : 4 frames
Codec ID                                 : V_MPEG4/ISO/AVC
Duration                                 : 55 min 34 s
Bit rate mode                            : Constant
Bit rate                                 : 2 293 kb/s
Nominal bit rate                         : 4 000 kb/s
Width                                    : 1 248 pixels
Height                                   : 520 pixels
Display aspect ratio                     : 2.40:1
Frame rate mode                          : Constant
Frame rate                               : 23.976 (24000/1001) FPS
Color space                              : YUV
Chroma subsampling                       : 4:2:0
Bit depth                                : 8 bits
Scan type                                : Progressive
Bits/(Pixel*Frame)                       : 0.147
Stream size                              : 911 MiB (78%)
Language                                 : English (US)
Default                                  : Yes
Forced                                   : No
Color range                              : Limited
Color primaries                          : BT.709
Transfer characteristics                 : BT.709
Matrix coefficients                      : BT.709

Audio
ID                                       : 2
Format                                   : E-AC-3
Format/Info                              : Enhanced AC-3
Commercial name                          : Dolby Digital Plus
Codec ID                                 : A_EAC3
Duration                                 : 55 min 34 s
Bit rate mode                            : Constant
Bit rate                                 : 640 kb/s
Channel(s)                               : 6 channels
Channel layout                           : L R C LFE Ls Rs
Sampling rate                            : 48.0 kHz
Frame rate                               : 31.250 FPS (1536 SPF)
Compression mode                         : Lossy
Stream size                              : 254 MiB (22%)
Language                                 : English (US)
Service kind                             : Complete Main
Default                                  : Yes
Forced                                   : No

Text #1
ID                                       : 3
Format                                   : UTF-8
Codec ID                                 : S_TEXT/UTF8
Codec ID/Info                            : UTF-8 Plain Text
Duration                                 : 54 min 10 s
Bit rate                                 : 77 b/s
Frame rate                               : 0.294 FPS
Count of elements                        : 957
Stream size                              : 30.8 KiB (0%)
Language                                 : English (US)
Default                                  : No
Forced                                   : No

Text #2
ID                                       : 4
Format                                   : UTF-8
Codec ID                                 : S_TEXT/UTF8
Codec ID/Info                            : UTF-8 Plain Text
Duration                                 : 54 min 35 s
Bit rate                                 : 81 b/s
Frame rate                               : 0.310 FPS
Count of elements                        : 1016
Stream size                              : 32.6 KiB (0%)
Title                                    : SDH
Language                                 : English (US)
Default                                  : No
Forced                                   : No

Menu
00:00:00.000                             : en:Scene 1
00:00:27.000                             : en:Recap
00:01:53.000                             : en:Scene 2
00:54:25.000                             : en:End Credits



Download
File Container: MKV
Video/Audio Codec: H264 (HIGH) EAC3
Video Resolution: 1248x520

1 Response to "[RR/NF/CU] Star Trek Discovery S05E03 Jinaal 720p AMZN WEB-DL DDP5 1 H 264-FLUX (1.1GB)"
04/11/24
12:48:14
ReadyPlayerOne

Thank You

Please Login to post a comment.
If you don't have any account, please Register.
  • Subscribe my Feeds
  • Facebook
Encoding Queue:  x264  x265

Latest Episodes

Popular Movies and TV Shows

  • The Fall Guy
  • Boy Kills World
  • The Veil
  • All American
  • Seize Them!
  • Better Call Saul
  • Stress Positions
  • Young Sheldon
  • Inside the Force: 24/7
  • Below Deck
  • Club Zero
  • Hangs Upon Nothing
  • The Equalizer
  • The Name of the Rose
  • Tracker
  • When Calls the Heart
  • Devil in the Flesh
  • TMZ Presents: The Downfall of Diddy
  • S.W.A.T.
  • The Simpsons
  • The Sympathizer
  • Golden Kamuy
  • Tales of Ordinary Madness
  • Arthur the King
  • Beacon 23

Recent Comments

  • PROFessorMorrynarty: Would it be possible to upload 'Lego masters Australia' Series 6 Episode 6 Please? It's the only one...
  • mentalityx:

    Thx mate.

  • Bud: Is the search engine down for everyone, or just me? It just says 'You're forbidden!' whenever I lo...
  • 23d1:

    not episode 4 it is episode 3

  • 23d1:

    not episode 4 it is episode 3

  • 23d1:

    not episode 4 it is episode 3

  • 23d1:

    not episode 4 it is episode 3

  • aaroz88:

    Trimas!!

  • mptoo: I don't often ask this, infact this would be the first time, but I don't suppose there is any chance...
  • Cinque_Persson:

    btw:
    quote /quote
    is broken

  • gabrielsyme:

    Sorry but where is the clicknupload link?

  • mike1204:

    Is this episode doomed??? The RMX avi version is only 12 minutes long!!!

Archives