Sign Up   |   Sign In  
My Adventures with SupermanGypsy Rose: Life After Lock UpTheresa Caputo: Raising SpiritsThe Body StealersChristmas Is CanceledCats in the MuseumMayor of KingstownInterview with the VampireHotel CocaineDaaaaaali!OctopussySatan's ChildrenLadies in BlackBilly the KidWalkerKung Fu HustleLicence to KillLook to the LightWWE NXTThe Loud HouseThe Bold and the BeautifulThere's Something About MaryVice News Presents: Mass Shooting AmericaInside Out 2The Daily Show

Announcements

05/23

2024

1

Comments

Star Trek Discovery S05E09 Lagrange Point 720p AMZN WEB-DL DDP5 1 H 264-FLUX
[RR/NF/CU]
Size: 1.1GB mkv H264 (HIGH) / EAC3  HD  1248x520

Star Trek: Discovery
File Information
[img]http://lookpic.com/cdn/i2/t/0523202409301981-1.jpg[/img]
[img]http://lookpic.com/cdn/i2/t/0523202409301981-2.jpg[/img]
[img]http://lookpic.com/cdn/i2/t/0523202409301981-3.jpg[/img]

General
Unique ID                                : 148442810512336024309136896548428899990 (0x6FAD0B9DFD2F20E48100897B36C8E696)
Complete name                            : Star Trek Discovery S05E09 Lagrange Point 720p AMZN WEB-DL DDP5 1 H 264-FLUX.mkv
Format                                   : Matroska
Format version                           : Version 4
File size                                : 1.11 GiB
Duration                                 : 46 min 56 s
Overall bit rate                         : 3 393 kb/s
Frame rate                               : 23.976 FPS
Writing application                      : mkvmerge v79.0 ('Funeral Pyres') 64-bit
Writing library                          : libebml v1.4.4 + libmatroska v1.7.1

Video
ID                                       : 1
Format                                   : AVC
Format/Info                              : Advanced Video Codec
Format profile                           : High@L3.1
Format settings                          : CABAC / 4 Ref Frames
Format settings, CABAC                   : Yes
Format settings, Reference frames        : 4 frames
Codec ID                                 : V_MPEG4/ISO/AVC
Duration                                 : 46 min 56 s
Bit rate mode                            : Constant
Bit rate                                 : 2 751 kb/s
Nominal bit rate                         : 4 000 kb/s
Width                                    : 1 248 pixels
Height                                   : 520 pixels
Display aspect ratio                     : 2.40:1
Frame rate mode                          : Constant
Frame rate                               : 23.976 (24000/1001) FPS
Color space                              : YUV
Chroma subsampling                       : 4:2:0
Bit depth                                : 8 bits
Scan type                                : Progressive
Bits/(Pixel*Frame)                       : 0.177
Stream size                              : 924 MiB (81%)
Language                                 : English (US)
Default                                  : Yes
Forced                                   : No
Color range                              : Limited
Color primaries                          : BT.709
Transfer characteristics                 : BT.709
Matrix coefficients                      : BT.709

Audio
ID                                       : 2
Format                                   : E-AC-3
Format/Info                              : Enhanced AC-3
Commercial name                          : Dolby Digital Plus
Codec ID                                 : A_EAC3
Duration                                 : 46 min 56 s
Bit rate mode                            : Constant
Bit rate                                 : 640 kb/s
Channel(s)                               : 6 channels
Channel layout                           : L R C LFE Ls Rs
Sampling rate                            : 48.0 kHz
Frame rate                               : 31.250 FPS (1536 SPF)
Compression mode                         : Lossy
Stream size                              : 215 MiB (19%)
Language                                 : English (US)
Service kind                             : Complete Main
Default                                  : Yes
Forced                                   : No

Text #1
ID                                       : 3
Format                                   : UTF-8
Codec ID                                 : S_TEXT/UTF8
Codec ID/Info                            : UTF-8 Plain Text
Duration                                 : 45 min 31 s
Bit rate                                 : 85 b/s
Frame rate                               : 0.314 FPS
Count of elements                        : 859
Stream size                              : 28.4 KiB (0%)
Language                                 : English (US)
Default                                  : No
Forced                                   : No

Text #2
ID                                       : 4
Format                                   : UTF-8
Codec ID                                 : S_TEXT/UTF8
Codec ID/Info                            : UTF-8 Plain Text
Duration                                 : 45 min 55 s
Bit rate                                 : 90 b/s
Frame rate                               : 0.328 FPS
Count of elements                        : 905
Stream size                              : 30.3 KiB (0%)
Title                                    : SDH
Language                                 : English (US)
Default                                  : No
Forced                                   : No

Menu
00:00:00.000                             : en:Scene 1
00:00:27.000                             : en:Recap
00:02:34.000                             : en:Scene 2
00:11:43.000                             : en:Intro
00:13:12.000                             : en:Scene 3
00:45:48.000                             : en:End Credits



Download
File Container: MKV
Video/Audio Codec: H264 (HIGH) EAC3
Video Resolution: 1248x520

1 Response to "[RR/NF/CU] Star Trek Discovery S05E09 Lagrange Point 720p AMZN WEB-DL DDP5 1 H 264-FLUX (1.1GB)"
05/23/24
09:51:31
ReadyPlayerOne

Thank You

Please Login to post a comment.
If you don't have any account, please Register.
  • Subscribe my Feeds
  • Facebook
Encoding Queue:  x264  x265

Latest Episodes

Popular Movies and TV Shows

  • My Adventures with Superman
  • Gypsy Rose: Life After Lock Up
  • Theresa Caputo: Raising Spirits
  • The Body Stealers
  • Christmas Is Canceled
  • Cats in the Museum
  • Mayor of Kingstown
  • Interview with the Vampire
  • Hotel Cocaine
  • Daaaaaali!
  • Octopussy
  • Satan's Children
  • Ladies in Black
  • Billy the Kid
  • Walker
  • Kung Fu Hustle
  • Licence to Kill
  • Look to the Light
  • WWE NXT
  • The Loud House
  • The Bold and the Beautiful
  • There's Something About Mary
  • Vice News Presents: Mass Shooting America
  • Inside Out 2
  • The Daily Show

Recent Comments

Archives