Sign Up   |   Sign In  

Announcements

Want to support us?
Buy a RapidRAR account from our resellers:
Buy or renew a NitroFlare account via THIS LINK

04/16

2017

1

Comments

The Son S01E03 720p WEB-DL DD5 1 H264-RARBG
[RR/NF/UL/UR]
Size: 1.3GB mkv H264 (HIGH) / AC3  HD  1280x718

The Son
Click on the image to see full size
[RR/NF/UL/UR] The Son S01E03 720p WEB-DL DD5 1 H264-RARBG (1.3GB) - Snapshot 1
File Information
[URL=http://imagecurl.com/viewer.php?file=83966535696925011982.png][IMG]http://imagecurl.com/images/83966535696925011982_thumb.png[/IMG][/URL]
[URL=http://imagecurl.com/viewer.php?file=21470326915535151979.png][IMG]http://imagecurl.com/images/21470326915535151979_thumb.png[/IMG][/URL]
[URL=http://imagecurl.com/viewer.php?file=96835679793593851213.png][IMG]http://imagecurl.com/images/96835679793593851213_thumb.png[/IMG][/URL]
[URL=http://imagecurl.com/viewer.php?file=51125808051007435335.png][IMG]http://imagecurl.com/images/51125808051007435335_thumb.png[/IMG][/URL]
[URL=http://imagecurl.com/viewer.php?file=68492852327203055032.png][IMG]http://imagecurl.com/images/68492852327203055032_thumb.png[/IMG][/URL]
[URL=http://imagecurl.com/viewer.php?file=03616268431090211886.png][IMG]http://imagecurl.com/images/03616268431090211886_thumb.png[/IMG][/URL]



[mediainfo]
Video
ID                                       : 1
Format                                   : AVC
Format/Info                              : Advanced Video Codec
Format profile                           : [email protected]
Format settings, CABAC                   : No
Format settings, ReFrames                : 2 frames
Codec ID                                 : V_MPEG4/ISO/AVC
Duration                                 : 42mn 13s
Bit rate                                 : 3 942 Kbps
Width                                    : 1 280 pixels
Height                                   : 718 pixels
Display aspect ratio                     : 16:9
Frame rate mode                          : Constant
Frame rate                               : 23.976 (24000/1001) fps
Color space                              : YUV
Chroma subsampling                       : 4:2:0
Bit depth                                : 8 bits
Scan type                                : Progressive
Bits/(Pixel*Frame)                       : 0.179
Stream size                              : 1.16 GiB (89%)
Title                                    : The.Son.S01E03.720p.WEB-DL.DD5.1.H264-RARBG
Language                                 : English
Default                                  : Yes
Forced                                   : No
Color range                              : Limited
Color primaries                          : BT.709
Transfer characteristics                 : BT.709
Matrix coefficients                      : BT.709

Audio
ID                                       : 2
Format                                   : AC-3
Format/Info                              : Audio Coding 3
Mode extension                           : CM (complete main)
Format settings, Endianness              : Big
Codec ID                                 : A_AC3
Duration                                 : 42mn 13s
Bit rate mode                            : Constant
Bit rate                                 : 384 Kbps
Channel(s)                               : 6 channels
Channel positions                        : Front: L C R, Side: L R, LFE
Sampling rate                            : 48.0 KHz
Frame rate                               : 31.250 fps (1536 spf)
Compression mode                         : Lossy
Stream size                              : 116 MiB (9%)
Title                                    : The.Son.S01E03.720p.WEB-DL.DD5.1.H264-RARBG
Language                                 : English
Default                                  : Yes
Forced                                   : No

Text #1
ID                                       : 3
Format                                   : UTF-8
Codec ID                                 : S_TEXT/UTF8
Codec ID/Info                            : UTF-8 Plain Text
Language                                 : English
Default                                  : Yes
Forced                                   : No

Text #2
ID                                       : 4
Format                                   : UTF-8
Codec ID                                 : S_TEXT/UTF8
Codec ID/Info                            : UTF-8 Plain Text
Title                                    : SDH
Language                                 : English
Default                                  : No
Forced                                   : No



[/mediainfo]
Download
File Container: MKV
Video/Audio Codec: H264 (HIGH) AC3
Video Resolution: 1280x718
 
 
 
 

Show us some love

1 Response to "[RR/NF/UL/UR] The Son S01E03 720p WEB-DL DD5 1 H264-RARBG (1.3GB)"
05/19/17
17:30:28
Admin

RapidRAR re-uploaded with new RAR file(s) (users who couldn't download some parts need to download all parts again).

Leave a Comment

  • (never displayed)
  •  
        Members don't see captchas. Sign Up / Sign In
  • Notify me via email when someone responds.
  • Subscribe my Feeds
  • Facebook

Latest Episodes

Popular Movies and TV Shows

  • The Handmaid's Tale
  • White Gold
  • The Flash
  • The Assignment
  • Aftermath
  • Bonded by Blood 2
  • Prison Break: Sequel
  • The Americans
  • iZombie
  • John Wick: Chapter 2
  • Russian Lolita
  • The Boss Baby
  • Brooklyn Nine-Nine
  • Bull
  • Supergirl
  • Logan
  • Eat Local
  • Night of Something Strange
  • Pretty Little Liars
  • Better Call Saul
  • Gotham
  • The Last Face
  • Beauty and the Beast
  • Grave
  • Twin Peaks

Recent Comments

  • Byala:

    Thanks we already knew that. Episode 8 will air May 31

  • Wrapt:

    Episode 7 and 8 are the same episode just a headsup for all

  • AshRough:

    Thnx.....

  • deka:

    the 2017 BBMAs please....

    thanks

  • Blue Moon: @wentworthy nice try, but you posted this on episode 7 page meaning you're not waiting for ep 7 only...
  • b007:

    Thanks for the upload. Appreciate it!

  • irfan:

    link openload was dead... plz reupload for that

  • David-A-H:

    Thank you

  • maryaam:

    it was episode 7!!!!!

  • celebfan200202020: Wow! The picture quality on this sucks, especially for the size it is. It looks JUST like the video ...