Sign Up   |   Sign In  
EvilMysterious DisappearancesWalkerThis Is SparklehorseKakeguruiMegamindReginald the VampireWWE NXTMacGyverThe Fall GuyMoviePass, MovieCrashBoys on Film 21: Beautiful SecretFuriosa: A Mad Max SagaDark MatterMasterChef AustraliaUnder the BridgeThe Feeling That the Time for Doing Something Has PassedAutoeroticThe Big Door PrizeWWE RawLootYour Mother's SonMahal ko ang mahal moCivil WarThe Daily Show

Announcements

04/10

2024

1

Comments

The Spencer Sisters S01E01 The Scholars Snafu 1080p AMZN WEB-DL DD5 1 H 264-NTb
[RR/NF]
Size: 2.2GB mkv H264 (HIGH) / AC3  HD  1920x1080

The Spencer Sisters
File Information
[img]http://lookpic.com/cdn/i2/t/0410202421350454-1.jpg[/img]
[img]http://lookpic.com/cdn/i2/t/0410202421350454-2.jpg[/img]
[img]http://lookpic.com/cdn/i2/t/0410202421350454-3.jpg[/img]

General
Unique ID                                : 123153237785451263510766665865634314851 (0x5CA6736A3ECA3FE5495297A77124FA63)
Complete name                            : The Spencer Sisters S01E01 The Scholars Snafu 1080p AMZN WEB-DL DD5 1 H 264-NTb.mkv
Format                                   : Matroska
Format version                           : Version 4
File size                                : 2.17 GiB
Duration                                 : 43 min 7 s
Overall bit rate                         : 7 196 kb/s
Frame rate                               : 23.976 FPS
Writing application                      : mkvmerge v81.0 ('Milliontown') 64-bit
Writing library                          : libebml v1.4.4 + libmatroska v1.7.1

Video
ID                                       : 1
Format                                   : AVC
Format/Info                              : Advanced Video Codec
Format profile                           : High@L4
Format settings                          : CABAC / 4 Ref Frames
Format settings, CABAC                   : Yes
Format settings, Reference frames        : 4 frames
Codec ID                                 : V_MPEG4/ISO/AVC
Duration                                 : 43 min 7 s
Bit rate mode                            : Constant
Bit rate                                 : 6 810 kb/s
Nominal bit rate                         : 10 000 kb/s
Width                                    : 1 920 pixels
Height                                   : 1 080 pixels
Display aspect ratio                     : 16:9
Frame rate mode                          : Constant
Frame rate                               : 23.976 (24000/1001) FPS
Color space                              : YUV
Chroma subsampling                       : 4:2:0
Bit depth                                : 8 bits
Scan type                                : Progressive
Bits/(Pixel*Frame)                       : 0.137
Stream size                              : 2.05 GiB (95%)
Default                                  : Yes
Forced                                   : No
Color range                              : Limited
Color primaries                          : BT.709
Transfer characteristics                 : BT.709
Matrix coefficients                      : BT.709

Audio
ID                                       : 2
Format                                   : AC-3
Format/Info                              : Audio Coding 3
Commercial name                          : Dolby Digital
Codec ID                                 : A_AC3
Duration                                 : 43 min 7 s
Bit rate mode                            : Constant
Bit rate                                 : 384 kb/s
Channel(s)                               : 6 channels
Channel layout                           : L R C LFE Ls Rs
Sampling rate                            : 48.0 kHz
Frame rate                               : 31.250 FPS (1536 SPF)
Compression mode                         : Lossy
Stream size                              : 118 MiB (5%)
Language                                 : English
Service kind                             : Complete Main
Default                                  : Yes
Forced                                   : No

Text #1
ID                                       : 3
Format                                   : UTF-8
Codec ID                                 : S_TEXT/UTF8
Codec ID/Info                            : UTF-8 Plain Text
Duration                                 : 42 min 19 s
Bit rate                                 : 88 b/s
Frame rate                               : 0.396 FPS
Count of elements                        : 1006
Stream size                              : 27.4 KiB (0%)
Language                                 : English
Default                                  : No
Forced                                   : No

Text #2
ID                                       : 4
Format                                   : UTF-8
Codec ID                                 : S_TEXT/UTF8
Codec ID/Info                            : UTF-8 Plain Text
Duration                                 : 43 min 0 s
Bit rate                                 : 94 b/s
Frame rate                               : 0.441 FPS
Count of elements                        : 1139
Stream size                              : 29.7 KiB (0%)
Title                                    : SDH
Language                                 : English
Default                                  : No
Forced                                   : No



Download
File Container: MKV
Video/Audio Codec: H264 (HIGH) AC3
Video Resolution: 1920x1080

1 Response to "[RR/NF] The Spencer Sisters S01E01 The Scholars Snafu 1080p AMZN WEB-DL DD5 1 H 264-NTb (2.2GB)"
04/10/24
23:35:00
ReadyPlayerOne

Thank you!

Please Login to post a comment.
If you don't have any account, please Register.
  • Subscribe my Feeds
  • Facebook
Encoding Queue:  x264  x265

Latest Episodes

Popular Movies and TV Shows

  • Evil
  • Mysterious Disappearances
  • Walker
  • This Is Sparklehorse
  • Kakegurui
  • Megamind
  • Reginald the Vampire
  • WWE NXT
  • MacGyver
  • The Fall Guy
  • MoviePass, MovieCrash
  • Boys on Film 21: Beautiful Secret
  • Furiosa: A Mad Max Saga
  • Dark Matter
  • MasterChef Australia
  • Under the Bridge
  • The Feeling That the Time for Doing Something Has Passed
  • Autoerotic
  • The Big Door Prize
  • WWE Raw
  • Loot
  • Your Mother's Son
  • Mahal ko ang mahal mo
  • Civil War
  • The Daily Show

Recent Comments

  • dma: @admin It appears that ClickNupload is no longer usable for free users. Don't know about paying use...
  • Bionicone: Yea this is not the Bluray version. This is another Cam. This thing should be taken down. Do not dow...
  • spiderspinner: Bud:The same thing started happening to me last night and I've used four different browsers yet they...
  • timt:

    Junk, CAM

  • upx:

    WARNING:This is NOT a BluRay rip. It's a CAMrip.

  • Bud: Is clicknupload borked for anyone else now, or is it just me? In recent months it's only worked in...
  • mentalityx:

    Rad bloke!

  • waanaabe: I hope someone follows through with the rest! also, did not check every post but hoping future ones ...
  • Demonz:

    Holy popups ClickNupload

  • rambaldi70:

    this release sort cut! 1h33m12 !
    imdb - 1h 54m

  • rambaldi70: This release the first bad source 1h33m12 - stop the play this release sort cut! 1h33m12 ! imdb - 1h...
  • rambaldi70:

    this release sort cut! 1h33m12 !
    imdb - 1h 54m

  • dilliboy: Will we ever see these RMTeam releases ever again? I hope they're not lost to the digital graveyard ...
  • kang:

    NitroFlare's link is missing...

  • kang:

    NitroFlare's link is missing...

  • tchamast:

    @Wrapt

    I've seen that too, don't know why.

  • Rafi85: Hi thx for the 14th season. Is it possible to reupload some episodes plz they were removed. These ar...
  • KubrickFan:

    Any possibility of a fresh link for this?

  • GubeShitemon: This is a different movie to the artwork version. Not the Dylan McDermott film but the Ben Affleck f...
  • drorsabi1:

    @admin
    Please add "My Adventures With Superman Season 2 "

Archives