Sign Up   |   Sign In  
EvilWWE NXTWalkerThis Is SparklehorseMegamindMoviePass, MovieCrashReginald the VampireMacGyverMysterious DisappearancesThe Fall GuyBoys on Film 21: Beautiful SecretTarotFuriosa: A Mad Max SagaDark MatterMasterChef AustraliaUnder the BridgeThe Feeling That the Time for Doing Something Has PassedAutoeroticThe Big Door PrizeWWE RawLootYour Mother's SonMahal ko ang mahal moCivil WarThe Daily Show

Announcements

04/11

2024

No

Comments

Tyler Perrys Ruthless S04E22 Fistful of Greed 720p AMZN WEB-DL DDP2 0 H 264-MADSKY
[RR/NF/CU]
Size: 723MB mkv H264 (HIGH) / EAC3  HD  1280x720

Ruthless
File Information
[img]http://lookpic.com/cdn/i2/t/0411202416555437-1.jpg[/img]
[img]http://lookpic.com/cdn/i2/t/0411202416555437-2.jpg[/img]
[img]http://lookpic.com/cdn/i2/t/0411202416555437-3.jpg[/img]

General
Unique ID                                : 125146857157234441125526915124073205517 (0x5E2668705CA770CFABFE8C5C6C9E0F0D)
Complete name                            : Tyler Perrys Ruthless S04E22 Fistful of Greed 720p AMZN WEB-DL DDP2 0 H 264-MADSKY.mkv
Format                                   : Matroska
Format version                           : Version 4
File size                                : 723 MiB
Duration                                 : 43 min 41 s
Overall bit rate                         : 2 313 kb/s
Frame rate                               : 23.976 FPS
Writing application                      : mkvmerge v81.0 ('Milliontown') 64-bit
Writing library                          : libebml v1.4.4 + libmatroska v1.7.1

Video
ID                                       : 1
Format                                   : AVC
Format/Info                              : Advanced Video Codec
Format profile                           : High@L3.1
Format settings                          : CABAC / 4 Ref Frames
Format settings, CABAC                   : Yes
Format settings, Reference frames        : 4 frames
Codec ID                                 : V_MPEG4/ISO/AVC
Duration                                 : 43 min 41 s
Bit rate mode                            : Constant
Bit rate                                 : 2 087 kb/s
Nominal bit rate                         : 6 000 kb/s
Width                                    : 1 280 pixels
Height                                   : 720 pixels
Display aspect ratio                     : 16:9
Frame rate mode                          : Constant
Frame rate                               : 23.976 (24000/1001) FPS
Color space                              : YUV
Chroma subsampling                       : 4:2:0
Bit depth                                : 8 bits
Scan type                                : Progressive
Bits/(Pixel*Frame)                       : 0.094
Stream size                              : 652 MiB (90%)
Default                                  : Yes
Forced                                   : No
Color range                              : Limited
Color primaries                          : BT.709
Transfer characteristics                 : BT.709
Matrix coefficients                      : BT.709

Audio
ID                                       : 2
Format                                   : E-AC-3
Format/Info                              : Enhanced AC-3
Commercial name                          : Dolby Digital Plus
Codec ID                                 : A_EAC3
Duration                                 : 43 min 41 s
Bit rate mode                            : Constant
Bit rate                                 : 224 kb/s
Channel(s)                               : 2 channels
Channel layout                           : L R
Sampling rate                            : 48.0 kHz
Frame rate                               : 31.250 FPS (1536 SPF)
Compression mode                         : Lossy
Stream size                              : 70.0 MiB (10%)
Language                                 : English
Service kind                             : Complete Main
Default                                  : Yes
Forced                                   : No

Text #1
ID                                       : 3
Format                                   : UTF-8
Codec ID                                 : S_TEXT/UTF8
Codec ID/Info                            : UTF-8 Plain Text
Duration                                 : 42 min 45 s
Bit rate                                 : 56 b/s
Frame rate                               : 0.303 FPS
Count of elements                        : 777
Stream size                              : 17.8 KiB (0%)
Language                                 : English (US)
Default                                  : No
Forced                                   : No

Text #2
ID                                       : 4
Format                                   : UTF-8
Codec ID                                 : S_TEXT/UTF8
Codec ID/Info                            : UTF-8 Plain Text
Duration                                 : 42 min 52 s
Bit rate                                 : 59 b/s
Frame rate                               : 0.312 FPS
Count of elements                        : 803
Stream size                              : 18.7 KiB (0%)
Title                                    : SDH
Language                                 : English (US)
Default                                  : No
Forced                                   : No



Download
File Container: MKV
Video/Audio Codec: H264 (HIGH) EAC3
Video Resolution: 1280x720
Please Login to post a comment.
If you don't have any account, please Register.
  • Subscribe my Feeds
  • Facebook
Encoding Queue:  x264  x265

Latest Episodes

Popular Movies and TV Shows

  • Evil
  • WWE NXT
  • Walker
  • This Is Sparklehorse
  • Megamind
  • MoviePass, MovieCrash
  • Reginald the Vampire
  • MacGyver
  • Mysterious Disappearances
  • The Fall Guy
  • Boys on Film 21: Beautiful Secret
  • Tarot
  • Furiosa: A Mad Max Saga
  • Dark Matter
  • MasterChef Australia
  • Under the Bridge
  • The Feeling That the Time for Doing Something Has Passed
  • Autoerotic
  • The Big Door Prize
  • WWE Raw
  • Loot
  • Your Mother's Son
  • Mahal ko ang mahal mo
  • Civil War
  • The Daily Show

Recent Comments

  • dma: @admin It appears that ClickNupload is no longer usable for free users. Don't know about paying use...
  • Bionicone: Yea this is not the Bluray version. This is another Cam. This thing should be taken down. Do not dow...
  • spiderspinner: Bud:The same thing started happening to me last night and I've used four different browsers yet they...
  • timt:

    Junk, CAM

  • upx:

    WARNING:This is NOT a BluRay rip. It's a CAMrip.

  • Bud: Is clicknupload borked for anyone else now, or is it just me? In recent months it's only worked in...
  • mentalityx:

    Rad bloke!

  • waanaabe: I hope someone follows through with the rest! also, did not check every post but hoping future ones ...
  • Demonz:

    Holy popups ClickNupload

  • rambaldi70:

    this release sort cut! 1h33m12 !
    imdb - 1h 54m

  • rambaldi70: This release the first bad source 1h33m12 - stop the play this release sort cut! 1h33m12 ! imdb - 1h...
  • rambaldi70:

    this release sort cut! 1h33m12 !
    imdb - 1h 54m

  • dilliboy: Will we ever see these RMTeam releases ever again? I hope they're not lost to the digital graveyard ...
  • kang:

    NitroFlare's link is missing...

  • kang:

    NitroFlare's link is missing...

  • tchamast:

    @Wrapt

    I've seen that too, don't know why.

  • Rafi85: Hi thx for the 14th season. Is it possible to reupload some episodes plz they were removed. These ar...
  • KubrickFan:

    Any possibility of a fresh link for this?

  • GubeShitemon: This is a different movie to the artwork version. Not the Dylan McDermott film but the Ben Affleck f...
  • drorsabi1:

    @admin
    Please add "My Adventures With Superman Season 2 "

Archives