Sign Up   |   Sign In  
Doctor WhoFBI: Most WantedThe Bold and the BeautifulWho's Yer Father?Civil WarAtlasSouth Park: The End of ObesityWWE Smackdown!South ParkMcDonald & DoddsWWE NXTStar Trek: DiscoveryThe RookieFuriosa: A Mad Max SagaThe Fall GuyThe Beach BoysElsbethGrey's Anatomy9-1-1American StarCrewThe Blue AngelsThe Daily ShowChicago FireEvil

Announcements

04/17

2024

1

Comments

Under the Bridge S01E01 Looking Glass 1080p DSNP WEB-DL DDP5 1 H 264-FLUX
[RR/NF/CU]
Size: 1.9GB mkv H264 (HIGH) / EAC3  HD  1920x1080

Under the Bridge
File Information
[img]http://lookpic.com/cdn/i2/t/0417202411001384-1.jpg[/img]
[img]http://lookpic.com/cdn/i2/t/0417202411001384-2.jpg[/img]
[img]http://lookpic.com/cdn/i2/t/0417202411001384-3.jpg[/img]

General
Unique ID                                : 92546822086091027141085644958927001687 (0x459FDE9D89E0D8AA9BCD6AA041999857)
Complete name                            : Under the Bridge S01E01 Looking Glass 1080p DSNP WEB-DL DDP5 1 H 264-FLUX.mkv
Format                                   : Matroska
Format version                           : Version 4
File size                                : 1.93 GiB
Duration                                 : 47 min 5 s
Overall bit rate mode                    : Variable
Overall bit rate                         : 5 873 kb/s
Frame rate                               : 23.976 FPS
Writing application                      : mkvmerge v83.0 ('Circle Of Friends') 64-bit
Writing library                          : libebml v1.4.5 + libmatroska v1.7.1

Video
ID                                       : 1
Format                                   : AVC
Format/Info                              : Advanced Video Codec
Format profile                           : High@L4
Format settings                          : CABAC / 4 Ref Frames
Format settings, CABAC                   : Yes
Format settings, Reference frames        : 4 frames
Codec ID                                 : V_MPEG4/ISO/AVC
Duration                                 : 47 min 5 s
Bit rate mode                            : Variable
Bit rate                                 : 5 614 kb/s
Maximum bit rate                         : 12.7 Mb/s
Width                                    : 1 920 pixels
Height                                   : 1 080 pixels
Display aspect ratio                     : 16:9
Frame rate mode                          : Constant
Frame rate                               : 23.976 (24000/1001) FPS
Color space                              : YUV
Chroma subsampling                       : 4:2:0
Bit depth                                : 8 bits
Scan type                                : Progressive
Bits/(Pixel*Frame)                       : 0.113
Time code of first frame                 : 00:00:00:0000000000
Stream size                              : 1.85 GiB (96%)
Language                                 : English
Default                                  : Yes
Forced                                   : No
Color range                              : Limited
Color primaries                          : BT.709
Transfer characteristics                 : BT.709
Matrix coefficients                      : BT.709

Audio
ID                                       : 2
Format                                   : E-AC-3
Format/Info                              : Enhanced AC-3
Commercial name                          : Dolby Digital Plus
Codec ID                                 : A_EAC3
Duration                                 : 47 min 5 s
Bit rate mode                            : Constant
Bit rate                                 : 256 kb/s
Channel(s)                               : 6 channels
Channel layout                           : L R C LFE Ls Rs
Sampling rate                            : 48.0 kHz
Frame rate                               : 31.250 FPS (1536 SPF)
Compression mode                         : Lossy
Stream size                              : 86.2 MiB (4%)
Language                                 : English
Service kind                             : Complete Main
Default                                  : Yes
Forced                                   : No

Text #1
ID                                       : 3
Format                                   : UTF-8
Codec ID                                 : S_TEXT/UTF8
Codec ID/Info                            : UTF-8 Plain Text
Duration                                 : 46 min 49 s
Bit rate                                 : 64 b/s
Frame rate                               : 0.228 FPS
Count of elements                        : 641
Stream size                              : 22.1 KiB (0%)
Language                                 : English
Default                                  : No
Forced                                   : No

Text #2
ID                                       : 4
Format                                   : UTF-8
Codec ID                                 : S_TEXT/UTF8
Codec ID/Info                            : UTF-8 Plain Text
Duration                                 : 46 min 49 s
Bit rate                                 : 87 b/s
Frame rate                               : 0.305 FPS
Count of elements                        : 858
Stream size                              : 30.0 KiB (0%)
Title                                    : SDH
Language                                 : English
Default                                  : No
Forced                                   : No

Text #3
ID                                       : 5
Format                                   : UTF-8
Codec ID                                 : S_TEXT/UTF8
Codec ID/Info                            : UTF-8 Plain Text
Duration                                 : 46 min 57 s
Bit rate                                 : 60 b/s
Frame rate                               : 0.211 FPS
Count of elements                        : 594
Stream size                              : 20.6 KiB (0%)
Title                                    : Latin American
Language                                 : Spanish (Latin America)
Default                                  : No
Forced                                   : No

Menu
00:46:06.305                             : en:Credits



Download
File Container: MKV
Video/Audio Codec: H264 (HIGH) EAC3
Video Resolution: 1920x1080

1 Response to "[RR/NF/CU] Under the Bridge S01E01 Looking Glass 1080p DSNP WEB-DL DDP5 1 H 264-FLUX (1.9GB)"
04/18/24
07:53:47
ReadyPlayerOne

Thank You

Please Login to post a comment.
If you don't have any account, please Register.
  • Subscribe my Feeds
  • Facebook
Encoding Queue:  x264  x265

Latest Episodes

Popular Movies and TV Shows

  • Doctor Who
  • FBI: Most Wanted
  • The Bold and the Beautiful
  • Who's Yer Father?
  • Civil War
  • Atlas
  • South Park: The End of Obesity
  • WWE Smackdown!
  • South Park
  • McDonald & Dodds
  • WWE NXT
  • Star Trek: Discovery
  • The Rookie
  • Furiosa: A Mad Max Saga
  • The Fall Guy
  • The Beach Boys
  • Elsbeth
  • Grey's Anatomy
  • 9-1-1
  • American Star
  • Crew
  • The Blue Angels
  • The Daily Show
  • Chicago Fire
  • Evil

Recent Comments

  • spiker1961:

    The audio on this is a commentary track, not the actual film audio.

  • spiker1961:

    The audio on this is a commentary track, not the film audio.

  • DuranDuran: The MS PAT show - - Does anyone have BOTH the MS PAT show (SEASON 4) & (SEASON 3) that just cam...
  • newuser:

    need english subtitles

  • Demonz:

    WTH is this

    NO season info and parts 1-13

  • meyat74:

    please add if possible new episodes 5-6

  • DuranDuran: THE MS PAT show = Does anyone have BOTH the MS PAT show (SEASON 3)-and- (SEASON 4) that just came ou...
  • big_ralphie: Just sitting down to watch and, yes there are subtitles...in ITALIAN ONLY. ENGLISH subs might be hel...
  • Geependo:

    All links are dead

  • OldMovies:

    Has Czech subtitles but not English. Need forced English for the foreign language parts.

  • PROFessorMorrynarty: Would it be possible to upload 'Lego masters Australia' Series 6 Episode 6 Please? It's the only one...
  • mentalityx:

    Thx mate.

Archives