Sign Up   |   Sign In  

Announcements

Want to support us?
Buy a RapidRAR account from our resellers:
Buy or renew a NitroFlare account via THIS LINK

06/19

2017

No

Comments

Veep S06E09 REPACK WEBRip x264-RARBG
[RR/NF/UL/OL/OLw/UR/CU]
Size: 263MB mp4 H264 (HIGH) (AVC1) / AAC (LC) (MP4A) 720x400

Veep
Click on the image to see full size
[RR/NF/UL/OL/OLw/UR/CU] Veep S06E09 REPACK WEBRip x264-RARBG (263MB) - Snapshot 1[RR/NF/UL/OL/OLw/UR/CU] Veep S06E09 REPACK WEBRip x264-RARBG (263MB) - Snapshot 2
File Information
[URL]http://www.imdb.com/title/tt1759761/[/URL]
[screenshots]
[URL=http://imagecurl.com/viewer.php?file=98609610971267681667.png][IMG]http://imagecurl.com/images/98609610971267681667_thumb.png[/IMG][/URL]
[URL=http://imagecurl.com/viewer.php?file=14121156656430495060.png][IMG]http://imagecurl.com/images/14121156656430495060_thumb.png[/IMG][/URL]
[URL=http://imagecurl.com/viewer.php?file=62220403555613265255.png][IMG]http://imagecurl.com/images/62220403555613265255_thumb.png[/IMG][/URL]

[/screenshots]


[mediainfo]
Video
ID                                       : 1
Format                                   : AVC
Format/Info                              : Advanced Video Codec
Format profile                           : High@L3.1
Format settings, CABAC                   : Yes
Format settings, ReFrames                : 5 frames
Codec ID                                 : avc1
Codec ID/Info                            : Advanced Video Coding
Duration                                 : 29mn 47s
Bit rate                                 : 1 100 Kbps
Width                                    : 720 pixels
Height                                   : 400 pixels
Display aspect ratio                     : 16:9
Frame rate mode                          : Constant
Frame rate                               : 23.976 (24000/1001) fps
Color space                              : YUV
Chroma subsampling                       : 4:2:0
Bit depth                                : 8 bits
Scan type                                : Progressive
Bits/(Pixel*Frame)                       : 0.159
Stream size                              : 235 MiB (89%)
Title                                    : RARBG.COM - Veep.S06E09.A.Woman.First.REPACK.AMZN.WEBRip.x264-RARBG
Writing library                          : x264 core 148 r2597M e86f3a1
 Encoding settings                        : cabac=1 / ref=5 / deblock=1:-1:-1 / analyse=0x3:0x113 / me=umh / subme=9 / psy=1 / psy_rd=1.00:0.15 / mixed_ref=1 / me_range=16 / chroma_me=1 / trellis=2 / 8x8dct=1 / cqm=0 / deadz / fast pskip=1 / chroma_qp_offset=-3 / threads=12 / lookahead_threads=1 / sliced_threads=0 / nr=0 / decimate=1 / interlaced=0 / bluray_compat=0 / c / bframes=3 / b_pyramid=2 / b_adapt=2 / b_bias=0 / direct=3 / weightb=1 / open_gop=0 / weightp=2 / keyint=250 / keyint_min=23 / scenecut=40 / intra_refresh=0 / rc_lookahead=50 / rc=abr / mbtree=1 / bitrate=1100 / ratetol=1.0 / qcomp=0.60 / qpmin=0 / qpmax=69 / qpstep=4 / ip_ratio=1.40 / aq=1:1.00
Encoded date                             : UTC 2017-06-19 17:41:31
Tagged date                              : UTC 2017-06-19 17:41:31

Audio
ID                                       : 2
Format                                   : AAC
Format/Info                              : Advanced Audio Codec
Format profile                           : LC
Codec ID                                 : 40
Duration                                 : 29mn 47s
Duration_LastFrame                       : -11ms
Bit rate mode                            : Constant
Bit rate                                 : 128 Kbps
Channel(s)                               : 2 channels
Channel positions                        : Front: L R
Sampling rate                            : 48.0 KHz
Frame rate                               : 46.875 fps (1024 spf)
Compression mode                         : Lossy
Stream size                              : 27.3 MiB (10%)
Title                                    : RARBG.COM - Veep.S06E09.A.Woman.First.REPACK.AMZN.WEBRip.x264-RARBG
Language                                 : English
Default                                  : Yes
Alternate group                          : 1
Encoded date                             : UTC 2017-06-19 17:41:31
Tagged date                              : UTC 2017-06-19 17:41:31



[/mediainfo]
Download
File Container: MP4
Video/Audio Codec: H264 (HIGH) (AVC1) AAC (LC) (MP4A)
Video Resolution: 720x400
 
 
 
 
 
 
Watch Online [MP4]

Show us some love

Leave a Comment

  • (never displayed)
  •  
        Members don't see captchas. Sign Up / Sign In
  • Notify me via email when someone responds.
  • Subscribe my Feeds
  • Facebook

Latest Episodes

Popular Movies and TV Shows

  • iZombie
  • Wrecked
  • Pretty Little Liars
  • Black Butterfly
  • The Lost City of Z
  • Animal Kingdom
  • Downward Dog
  • Alien: Covenant
  • Their Finest
  • Avalon
  • The Family Law
  • Preacher
  • After School Special
  • Broken
  • Stitchers
  • Transformers: The Last Knight
  • Don't Hang Up
  • Shadowhunters
  • Glastonbury 2017
  • Smurfs: The Lost Village
  • ExPatriot
  • Grey Lady
  • Casual
  • Silicon Valley
  • Fear the Walking Dead

Recent Comments

  • thaone:

    Thanks

  • thaone:

    Thanks

  • thaone:

    Thanks

  • thaone:

    Thanks

  • thaone:

    Thanks

  • dg:

    KING KONG 2005 EXTENDED please post in OPENLOAD ??

  • Adamastor: Please, re-upload the following episodes of tv show Rectify:Rectify.S04E01.A.House.Divided.720p.WEB-...
  • gavtron5000:

    All of the links are account missing errors for me.

  • DonJ: Jeez! Again? This has become more common thing in RARBG releases. not the first time in recent times...
  • some dude:

    rolf that screenshot