Sign Up   |   Sign In  
SistasThe ChosenThe ChiI Saw the TV GlowBratsInside Out 2The Bold and the BeautifulShoresyThe Big CigarNotas sobre un veranoThe EgyptianThe PrestigeWWE NXTThe BoysWalkerMower MinionsAssimilateFentasyEvilBridgertonCriminal MindsIn the Line of FireThe Artifice GirlLamp LifeThe Daily Show

Announcements

05/17

2024

1

Comments

Young Sheldon S07E13 Funeral 720p AMZN WEB-DL DDP5 1 H 264-NTb
[RR/NF]
Size: 550MB mkv H264 (HIGH) / EAC3  HD  1280x720

Young Sheldon
File Information
[img]http://lookpic.com/cdn/i2/t/0517202406193639-1.jpg[/img]
[img]http://lookpic.com/cdn/i2/t/0517202406193639-2.jpg[/img]
[img]http://lookpic.com/cdn/i2/t/0517202406193639-3.jpg[/img]

General
Unique ID                                : 1765147648633605829733646897888078734 (0x153F47F8D1B485424D85B8EBB23AB8E)
Complete name                            : Young Sheldon S07E13 Funeral 720p AMZN WEB-DL DDP5 1 H 264-NTb.mkv
Format                                   : Matroska
Format version                           : Version 4
File size                                : 551 MiB
Duration                                 : 21 min 20 s
Overall bit rate                         : 3 609 kb/s
Frame rate                               : 23.976 FPS
Writing application                      : mkvmerge v84.0 ('Sleeper') 64-bit
Writing library                          : libebml v1.4.5 + libmatroska v1.7.1

Video
ID                                       : 1
Format                                   : AVC
Format/Info                              : Advanced Video Codec
Format profile                           : High@L3.1
Format settings                          : CABAC / 4 Ref Frames
Format settings, CABAC                   : Yes
Format settings, Reference frames        : 4 frames
Codec ID                                 : V_MPEG4/ISO/AVC
Duration                                 : 21 min 20 s
Bit rate mode                            : Constant
Bit rate                                 : 2 966 kb/s
Nominal bit rate                         : 4 000 kb/s
Width                                    : 1 280 pixels
Height                                   : 720 pixels
Display aspect ratio                     : 16:9
Frame rate mode                          : Constant
Frame rate                               : 23.976 (24000/1001) FPS
Color space                              : YUV
Chroma subsampling                       : 4:2:0
Bit depth                                : 8 bits
Scan type                                : Progressive
Bits/(Pixel*Frame)                       : 0.134
Stream size                              : 453 MiB (82%)
Default                                  : Yes
Forced                                   : No
Color range                              : Limited
Color primaries                          : BT.709
Transfer characteristics                 : BT.709
Matrix coefficients                      : BT.709

Audio
ID                                       : 2
Format                                   : E-AC-3
Format/Info                              : Enhanced AC-3
Commercial name                          : Dolby Digital Plus
Codec ID                                 : A_EAC3
Duration                                 : 21 min 20 s
Bit rate mode                            : Constant
Bit rate                                 : 640 kb/s
Channel(s)                               : 6 channels
Channel layout                           : L R C LFE Ls Rs
Sampling rate                            : 48.0 kHz
Frame rate                               : 31.250 FPS (1536 SPF)
Compression mode                         : Lossy
Stream size                              : 97.7 MiB (18%)
Language                                 : English (US)
Service kind                             : Complete Main
Default                                  : Yes
Forced                                   : No

Text #1
ID                                       : 3
Format                                   : UTF-8
Codec ID                                 : S_TEXT/UTF8
Codec ID/Info                            : UTF-8 Plain Text
Duration                                 : 20 min 54 s
Bit rate                                 : 66 b/s
Frame rate                               : 0.336 FPS
Count of elements                        : 421
Stream size                              : 10.2 KiB (0%)
Language                                 : English (US)
Default                                  : No
Forced                                   : No

Text #2
ID                                       : 4
Format                                   : UTF-8
Codec ID                                 : S_TEXT/UTF8
Codec ID/Info                            : UTF-8 Plain Text
Duration                                 : 20 min 54 s
Bit rate                                 : 71 b/s
Frame rate                               : 0.361 FPS
Count of elements                        : 453
Stream size                              : 11.0 KiB (0%)
Title                                    : SDH
Language                                 : English (US)
Default                                  : No
Forced                                   : No



Download
File Container: MKV
Video/Audio Codec: H264 (HIGH) EAC3
Video Resolution: 1280x720

1 Response to "[RR/NF] Young Sheldon S07E13 Funeral 720p AMZN WEB-DL DDP5 1 H 264-NTb (550MB)"
05/17/24
07:27:29
ReadyPlayerOne

Thank You

Please Login to post a comment.
If you don't have any account, please Register.
  • Subscribe my Feeds
  • Facebook
Encoding Queue:  x264  x265

Latest Episodes

Popular Movies and TV Shows

  • Sistas
  • The Chosen
  • The Chi
  • I Saw the TV Glow
  • Brats
  • Inside Out 2
  • The Bold and the Beautiful
  • Shoresy
  • The Big Cigar
  • Notas sobre un verano
  • The Egyptian
  • The Prestige
  • WWE NXT
  • The Boys
  • Walker
  • Mower Minions
  • Assimilate
  • Fentasy
  • Evil
  • Bridgerton
  • Criminal Minds
  • In the Line of Fire
  • The Artifice Girl
  • Lamp Life
  • The Daily Show

Recent Comments

Archives