Sign Up   |   Sign In  
The Fall GuyBoy Kills WorldThe VeilClub ZeroUnnamed MemoryAll AmericanSeize Them!Young SheldonWWE RawBelow DeckStress PositionsShadow MagicBetter Call SaulThe EqualizerThe Name of the RoseThe SimpsonsTMZ Presents: The Downfall of DiddyDevil in the FleshTrackerS.W.A.T.The SympathizerTales of Ordinary MadnessGolden KamuyArthur the KingBeacon 23

Announcements

04/22

2024

No

Comments

Abbott Elementary S03E10 2 Ava 2 Fest REPACK 720p AMZN WEB-DL DDP5 1 H 264-NTb
[RR/NF/CU]
Size: 936MB mkv H264 (HIGH) / EAC3  HD  1280x720

Abbott Elementary
File Information
[img]http://lookpic.com/cdn/i2/t/0422202401244986-1.jpg[/img]
[img]http://lookpic.com/cdn/i2/t/0422202401244986-2.jpg[/img]
[img]http://lookpic.com/cdn/i2/t/0422202401244986-3.jpg[/img]

General
Unique ID                                : 172245133393563959628468612131586420152 (0x819534BD948632D871BF27524E55ADB8)
Complete name                            : Abbott Elementary S03E10 2 Ava 2 Fest REPACK 720p AMZN WEB-DL DDP5 1 H 264-NTb.mkv
Format                                   : Matroska
Format version                           : Version 4
File size                                : 936 MiB
Duration                                 : 21 min 33 s
Overall bit rate                         : 6 071 kb/s
Frame rate                               : 23.976 FPS
Writing application                      : mkvmerge v81.0 ('Milliontown') 64-bit
Writing library                          : libebml v1.4.4 + libmatroska v1.7.1

Video
ID                                       : 1
Format                                   : AVC
Format/Info                              : Advanced Video Codec
Format profile                           : High@L3.1
Format settings                          : CABAC / 4 Ref Frames
Format settings, CABAC                   : Yes
Format settings, Reference frames        : 4 frames
Codec ID                                 : V_MPEG4/ISO/AVC
Duration                                 : 21 min 33 s
Bit rate mode                            : Constant
Bit rate                                 : 5 429 kb/s
Nominal bit rate                         : 6 000 kb/s
Width                                    : 1 280 pixels
Height                                   : 720 pixels
Display aspect ratio                     : 16:9
Frame rate mode                          : Constant
Frame rate                               : 23.976 (24000/1001) FPS
Color space                              : YUV
Chroma subsampling                       : 4:2:0
Bit depth                                : 8 bits
Scan type                                : Progressive
Bits/(Pixel*Frame)                       : 0.246
Stream size                              : 837 MiB (89%)
Default                                  : Yes
Forced                                   : No
Color range                              : Limited
Color primaries                          : BT.709
Transfer characteristics                 : BT.709
Matrix coefficients                      : BT.709

Audio
ID                                       : 2
Format                                   : E-AC-3
Format/Info                              : Enhanced AC-3
Commercial name                          : Dolby Digital Plus
Codec ID                                 : A_EAC3
Duration                                 : 21 min 33 s
Bit rate mode                            : Constant
Bit rate                                 : 640 kb/s
Channel(s)                               : 6 channels
Channel layout                           : L R C LFE Ls Rs
Sampling rate                            : 48.0 kHz
Frame rate                               : 31.250 FPS (1536 SPF)
Compression mode                         : Lossy
Stream size                              : 98.7 MiB (11%)
Language                                 : English (US)
Service kind                             : Complete Main
Default                                  : Yes
Forced                                   : No

Text #1
ID                                       : 3
Format                                   : UTF-8
Codec ID                                 : S_TEXT/UTF8
Codec ID/Info                            : UTF-8 Plain Text
Duration                                 : 21 min 18 s
Bit rate                                 : 112 b/s
Frame rate                               : 0.437 FPS
Count of elements                        : 559
Stream size                              : 17.5 KiB (0%)
Language                                 : English (US)
Default                                  : No
Forced                                   : No

Text #2
ID                                       : 4
Format                                   : UTF-8
Codec ID                                 : S_TEXT/UTF8
Codec ID/Info                            : UTF-8 Plain Text
Duration                                 : 21 min 24 s
Bit rate                                 : 117 b/s
Frame rate                               : 0.453 FPS
Count of elements                        : 582
Stream size                              : 18.4 KiB (0%)
Title                                    : SDH
Language                                 : English (US)
Default                                  : No
Forced                                   : No



Download
File Container: MKV
Video/Audio Codec: H264 (HIGH) EAC3
Video Resolution: 1280x720
Please Login to post a comment.
If you don't have any account, please Register.
  • Subscribe my Feeds
  • Facebook
Encoding Queue:  x264  x265

Latest Episodes

Popular Movies and TV Shows

  • The Fall Guy
  • Boy Kills World
  • The Veil
  • Club Zero
  • Unnamed Memory
  • All American
  • Seize Them!
  • Young Sheldon
  • WWE Raw
  • Below Deck
  • Stress Positions
  • Shadow Magic
  • Better Call Saul
  • The Equalizer
  • The Name of the Rose
  • The Simpsons
  • TMZ Presents: The Downfall of Diddy
  • Devil in the Flesh
  • Tracker
  • S.W.A.T.
  • The Sympathizer
  • Tales of Ordinary Madness
  • Golden Kamuy
  • Arthur the King
  • Beacon 23

Recent Comments

  • PROFessorMorrynarty: Would it be possible to upload 'Lego masters Australia' Series 6 Episode 6 Please? It's the only one...
  • mentalityx:

    Thx mate.

  • Bud: Is the search engine down for everyone, or just me? It just says 'You're forbidden!' whenever I lo...
  • 23d1:

    not episode 4 it is episode 3

  • 23d1:

    not episode 4 it is episode 3

  • 23d1:

    not episode 4 it is episode 3

  • 23d1:

    not episode 4 it is episode 3

  • aaroz88:

    Trimas!!

  • mptoo: I don't often ask this, infact this would be the first time, but I don't suppose there is any chance...
  • Cinque_Persson:

    btw:
    quote /quote
    is broken

  • gabrielsyme:

    Sorry but where is the clicknupload link?

  • mike1204:

    Is this episode doomed??? The RMX avi version is only 12 minutes long!!!

Archives