Sign Up   |   Sign In  
Star Trek: DiscoveryThe Three Musketeers - Part II: MiladyAmerican Horror StoryDinner with the ParentsLa margeSleeping with the EnemyFamily GuyChuckyWalkerParty LineThe InseparablesThe Fish with the Eyes of GoldGhostbusters: Frozen EmpireAnimal ControlNot Dead YetThe Bold and the BeautifulGodzilla x Kong: The New EmpireJokerStar Wars: The Bad BatchX-Men '97FBIEvil Does Not ExistThe BricklayerAn American Bombing: The Road to April 19thShogun

Announcements

03/28

2024

No

Comments

American Rust S02E06 Daddy Issues 720p AMZN WEB-DL DDP5 1 H 264-NTb
[RR/NF/CU]
Size: 832MB mkv H264 (HIGH) / EAC3  HD  1280x720

American Rust
File Information
[img]http://lookpic.com/cdn/i2/t/0328202415561636-1.jpg[/img]
[img]http://lookpic.com/cdn/i2/t/0328202415561636-2.jpg[/img]
[img]http://lookpic.com/cdn/i2/t/0328202415561636-3.jpg[/img]

General
Unique ID                                : 281344684832594520466944684664657319031 (0xD3A903EC193C0CC4CF899FDA00B09477)
Complete name                            : American Rust S02E06 Daddy Issues 720p AMZN WEB-DL DDP5 1 H 264-NTb.mkv
Format                                   : Matroska
Format version                           : Version 4
File size                                : 833 MiB
Duration                                 : 51 min 12 s
Overall bit rate                         : 2 273 kb/s
Frame rate                               : 23.976 FPS
Writing application                      : mkvmerge v81.0 ('Milliontown') 64-bit
Writing library                          : libebml v1.4.4 + libmatroska v1.7.1

Video
ID                                       : 1
Format                                   : AVC
Format/Info                              : Advanced Video Codec
Format profile                           : High@L3.1
Format settings                          : CABAC / 4 Ref Frames
Format settings, CABAC                   : Yes
Format settings, Reference frames        : 4 frames
Codec ID                                 : V_MPEG4/ISO/AVC
Duration                                 : 51 min 12 s
Bit rate mode                            : Constant
Bit rate                                 : 1 631 kb/s
Nominal bit rate                         : 4 000 kb/s
Width                                    : 1 280 pixels
Height                                   : 720 pixels
Display aspect ratio                     : 16:9
Frame rate mode                          : Constant
Frame rate                               : 23.976 (24000/1001) FPS
Color space                              : YUV
Chroma subsampling                       : 4:2:0
Bit depth                                : 8 bits
Scan type                                : Progressive
Bits/(Pixel*Frame)                       : 0.074
Stream size                              : 597 MiB (72%)
Default                                  : Yes
Forced                                   : No
Color range                              : Limited
Color primaries                          : BT.709
Transfer characteristics                 : BT.709
Matrix coefficients                      : BT.709

Audio
ID                                       : 2
Format                                   : E-AC-3
Format/Info                              : Enhanced AC-3
Commercial name                          : Dolby Digital Plus
Codec ID                                 : A_EAC3
Duration                                 : 51 min 12 s
Bit rate mode                            : Constant
Bit rate                                 : 640 kb/s
Channel(s)                               : 6 channels
Channel layout                           : L R C LFE Ls Rs
Sampling rate                            : 48.0 kHz
Frame rate                               : 31.250 FPS (1536 SPF)
Compression mode                         : Lossy
Stream size                              : 234 MiB (28%)
Language                                 : English (US)
Service kind                             : Complete Main
Default                                  : Yes
Forced                                   : No

Text #1
ID                                       : 3
Format                                   : UTF-8
Codec ID                                 : S_TEXT/UTF8
Codec ID/Info                            : UTF-8 Plain Text
Duration                                 : 50 min 28 s
Bit rate                                 : 44 b/s
Frame rate                               : 0.163 FPS
Count of elements                        : 493
Stream size                              : 16.6 KiB (0%)
Language                                 : English (US)
Default                                  : No
Forced                                   : No

Text #2
ID                                       : 4
Format                                   : UTF-8
Codec ID                                 : S_TEXT/UTF8
Codec ID/Info                            : UTF-8 Plain Text
Duration                                 : 50 min 30 s
Bit rate                                 : 49 b/s
Frame rate                               : 0.185 FPS
Count of elements                        : 561
Stream size                              : 18.4 KiB (0%)
Title                                    : SDH
Language                                 : English (US)
Default                                  : No
Forced                                   : No

Text #3
ID                                       : 5
Format                                   : UTF-8
Codec ID                                 : S_TEXT/UTF8
Codec ID/Info                            : UTF-8 Plain Text
Duration                                 : 50 min 34 s
Bit rate                                 : 43 b/s
Frame rate                               : 0.169 FPS
Count of elements                        : 512
Stream size                              : 16.2 KiB (0%)
Language                                 : German (DE)
Default                                  : No
Forced                                   : No

Text #4
ID                                       : 6
Format                                   : UTF-8
Codec ID                                 : S_TEXT/UTF8
Codec ID/Info                            : UTF-8 Plain Text
Duration                                 : 50 min 39 s
Bit rate                                 : 41 b/s
Frame rate                               : 0.170 FPS
Count of elements                        : 517
Stream size                              : 15.5 KiB (0%)
Language                                 : Spanish (Latin America)
Default                                  : No
Forced                                   : No

Text #5
ID                                       : 7
Format                                   : UTF-8
Codec ID                                 : S_TEXT/UTF8
Codec ID/Info                            : UTF-8 Plain Text
Duration                                 : 50 min 39 s
Bit rate                                 : 45 b/s
Frame rate                               : 0.169 FPS
Count of elements                        : 515
Stream size                              : 16.8 KiB (0%)
Language                                 : French (CA)
Default                                  : No
Forced                                   : No



Download
File Container: MKV
Video/Audio Codec: H264 (HIGH) EAC3
Video Resolution: 1280x720
Please Login to post a comment.
If you don't have any account, please Register.
  • Subscribe my Feeds
  • Facebook
Encoding Queue:  x264  x265

Latest Episodes

Popular Movies and TV Shows

  • Star Trek: Discovery
  • The Three Musketeers - Part II: Milady
  • American Horror Story
  • Dinner with the Parents
  • La marge
  • Sleeping with the Enemy
  • Family Guy
  • Chucky
  • Walker
  • Party Line
  • The Inseparables
  • The Fish with the Eyes of Gold
  • Ghostbusters: Frozen Empire
  • Animal Control
  • Not Dead Yet
  • The Bold and the Beautiful
  • Godzilla x Kong: The New Empire
  • Joker
  • Star Wars: The Bad Batch
  • X-Men '97
  • FBI
  • Evil Does Not Exist
  • The Bricklayer
  • An American Bombing: The Road to April 19th
  • Shogun

Recent Comments

  • timt:

    Anyone have the movie "Shoot" (1976) to post?

  • Nightshade: Hey, it appears at least the RMTeam separate episodes and ION's packs for the first two seasons of t...
  • Bigfishguy:

    There's no free option to download this video. Can someone please upload it to clicknupload?

  • timt:

    Junk

  • timt:

    CAM Audio

  • timt:

    Hard Coded SUMS! Russian, I Think.

  • ubirattan:

    Mandem um Fikper, por favor.

  • kellym2: No answer yet for my query - why all the episodes "server under maintenance" on some episo...
  • Majnon:

    Rapidrar links are dead :(

  • Rake:

    Loads of "Server is under maintenance" with RR theese days...

  • kellym2: Why am I getting "Server is in maintenance mode" on some episodes of a series and not on o...
  • Bud:

    Are you ever going to put up Thursday's episode with Liev Schreiber?

  • alp-engin:

    When will that maintenance be over? Please...

Archives