Sign Up   |   Sign In  
House of the DragonNCISReturn to Never LandNow and ThenGhostlightRide Along 2My Adventures with Superman60 MinutesTwo Way StretchMythic QuestJack Whitehall: Settle DownCats in the MuseumMayor of KingstownWalkerHotel CocaineCalamity JaneOctopussyKiller Body CountInterview with the VampireThe Loud HouseYoung SheldonDaaaaaali!Kung Fu HustleLicence to KillThe Daily Show

Announcements

05/18

2024

1

Comments

Animal Control S02E01 720p FOX WEB-DL AAC2 0 H 264-NTb
[RR/NF/CU]
Size: 512MB mkv H264 (HIGH) / AAC (HE-AAC)  HD  1280x720

Animal Control
File Information
[img]http://lookpic.com/cdn/i2/t/0518202400342729-1.jpg[/img]
[img]http://lookpic.com/cdn/i2/t/0518202400342729-2.jpg[/img]
[img]http://lookpic.com/cdn/i2/t/0518202400342729-3.jpg[/img]

General
Unique ID                                : 251395838438636462224618451343277802364 (0xBD2113CADF394A0DC3EC66FEFB2FC37C)
Complete name                            : Animal Control S02E01 720p FOX WEB-DL AAC2 0 H 264-NTb.mkv
Format                                   : Matroska
Format version                           : Version 4
File size                                : 512 MiB
Duration                                 : 20 min 43 s
Overall bit rate                         : 3 455 kb/s
Frame rate                               : 23.976 FPS
Encoded date                             : 2024-05-17 22:03:42 UTC
Writing application                      : mkvmerge v83.0 ('Circle Of Friends') 64-bit
Writing library                          : libebml v1.4.5 + libmatroska v1.7.1

Video
ID                                       : 1
Format                                   : AVC
Format/Info                              : Advanced Video Codec
Format profile                           : High@L3.1
Format settings                          : CABAC / 2 Ref Frames
Format settings, CABAC                   : Yes
Format settings, Reference frames        : 2 frames
Codec ID                                 : V_MPEG4/ISO/AVC
Duration                                 : 20 min 43 s
Bit rate                                 : 3 360 kb/s
Width                                    : 1 280 pixels
Height                                   : 720 pixels
Display aspect ratio                     : 16:9
Frame rate mode                          : Constant
Frame rate                               : 23.976 (24000/1001) FPS
Color space                              : YUV
Chroma subsampling                       : 4:2:0
Bit depth                                : 8 bits
Scan type                                : Progressive
Bits/(Pixel*Frame)                       : 0.152
Stream size                              : 493 MiB (96%)
Writing library                          : x264 core 146
 Encoding settings                        : cabac=1 / ref=2 / deblock=1:0:0 / analyse=0x3:0x113 / me=hex / subme=2 / psy=1 / psy_rd=1.00:0.00 / mixed_ref=0 / me_range=16 / chroma_me=1 / trellis=0 / 8x8dct=1 / cqm=0 / deadz / fast pskip=1 / chroma_qp_offset=0 / threads=4 / lookahead_threads=1 / sliced_threads=0 / nr=250 / decimate=1 / interlaced=0 / bluray_compat=0 / stitchable=1 / c / bframes=0 / weightp=1 / keyint=250 / keyint_min=24 / scenecut=40 / intra_refresh=0 / rc_lookahead=10 / rc=2pass / mbtree=1 / bitrate=3360 / ratetol=1.0 / qcomp=0.60 / qpmin=5 / qpmax=69 / qpstep=4 / cplxblur=20.0 / qblur=0.5 / vbv_maxrate=6720 / vbv_bufsize=3360 / nal_hrd=none / filler=0 / ip_ratio=1.40 / aq=1:1.00
Default                                  : Yes
Forced                                   : No
Color range                              : Limited
Color primaries                          : BT.709
Transfer characteristics                 : BT.709
Matrix coefficients                      : BT.709

Audio
ID                                       : 2
Format                                   : AAC LC SBR
Format/Info                              : Advanced Audio Codec Low Complexity with Spectral Band Replication
Commercial name                          : HE-AAC
Format settings                          : Implicit
Codec ID                                 : A_AAC-2
Duration                                 : 20 min 43 s
Bit rate                                 : 127 kb/s
Channel(s)                               : 2 channels
Channel layout                           : L R
Sampling rate                            : 48.0 kHz
Frame rate                               : 23.438 FPS (2048 SPF)
Compression mode                         : Lossy
Stream size                              : 18.8 MiB (4%)
Language                                 : English
Default                                  : Yes
Forced                                   : No

Text
ID                                       : 3
Format                                   : UTF-8
Codec ID                                 : S_TEXT/UTF8
Codec ID/Info                            : UTF-8 Plain Text
Duration                                 : 20 min 32 s
Bit rate                                 : 117 b/s
Frame rate                               : 0.478 FPS
Count of elements                        : 589
Stream size                              : 17.7 KiB (0%)
Language                                 : English
Default                                  : No
Forced                                   : No



Download
File Container: MKV
Video/Audio Codec: H264 (HIGH) AAC (HE-AAC)
Video Resolution: 1280x720

1 Response to "[RR/NF/CU] Animal Control S02E01 720p FOX WEB-DL AAC2 0 H 264-NTb (512MB)"
05/18/24
03:43:45
ReadyPlayerOne

Thank you!

Please Login to post a comment.
If you don't have any account, please Register.
  • Subscribe my Feeds
  • Facebook
Encoding Queue:  x264  x265

Latest Episodes

Popular Movies and TV Shows

  • House of the Dragon
  • NCIS
  • Return to Never Land
  • Now and Then
  • Ghostlight
  • Ride Along 2
  • My Adventures with Superman
  • 60 Minutes
  • Two Way Stretch
  • Mythic Quest
  • Jack Whitehall: Settle Down
  • Cats in the Museum
  • Mayor of Kingstown
  • Walker
  • Hotel Cocaine
  • Calamity Jane
  • Octopussy
  • Killer Body Count
  • Interview with the Vampire
  • The Loud House
  • Young Sheldon
  • Daaaaaali!
  • Kung Fu Hustle
  • Licence to Kill
  • The Daily Show

Recent Comments

Archives