Sign Up   |   Sign In  
Star Wars: The Bad BatchFBI: InternationalX-Men '97The Good DinosaurGods of EgyptFBIFBI: Most WantedThe Big Door PrizeMR-9: Do or DieDrive-Away DollsHanky PankyShogunMonkey ManArthur the KingNCISLootAccidental TexanNCIS: Hawai'iThe NeighborhoodBob Hearts AbisholaDowntown OwlAftermathOne LifeTrackerThe Simpsons

Announcements

03/31

2024

No

Comments

Arrested Development S05E01 Family Leave 720p NF WEBRip DD5 1 x264-NTb
[RR/NF/CU]
Size: 1GB mkv H264 (HIGH) / AC3  HD  1280x720

Arrested Development
File Information
[img]http://lookpic.com/cdn/i2/t/0331202419343652-1.jpg[/img]
[img]http://lookpic.com/cdn/i2/t/0331202419343652-2.jpg[/img]
[img]http://lookpic.com/cdn/i2/t/0331202419343652-3.jpg[/img]

General
Unique ID                                : 62236098254219737519526143224002946050 (0x2ED23C8CE663E6161598FBD33108A402)
Complete name                            : Arrested Development S05E01 Family Leave 720p NF WEBRip DD5 1 x264-NTb.mkv
Format                                   : Matroska
Format version                           : Version 4
File size                                : 1.00 GiB
Duration                                 : 26 min 45 s
Overall bit rate                         : 5 357 kb/s
Frame rate                               : 23.976 FPS
Encoded date                             : 2018-05-29 18:27:11 UTC
Writing application                      : mkvmerge v23.0.0 ('The Bride Said No') 64-bit
Writing library                          : libebml v1.3.6 + libmatroska v1.4.9

Video
ID                                       : 1
Format                                   : AVC
Format/Info                              : Advanced Video Codec
Format profile                           : High@L4.1
Format settings                          : CABAC / 9 Ref Frames
Format settings, CABAC                   : Yes
Format settings, Reference frames        : 9 frames
Codec ID                                 : V_MPEG4/ISO/AVC
Duration                                 : 26 min 45 s
Bit rate                                 : 4 970 kb/s
Width                                    : 1 280 pixels
Height                                   : 720 pixels
Display aspect ratio                     : 16:9
Frame rate mode                          : Constant
Frame rate                               : 23.976 (24000/1001) FPS
Color space                              : YUV
Chroma subsampling                       : 4:2:0
Bit depth                                : 8 bits
Scan type                                : Progressive
Bits/(Pixel*Frame)                       : 0.225
Stream size                              : 951 MiB (93%)
Writing library                          : x264 core 152 r2851kMod ba24899
 Encoding settings                        : cabac=1 / ref=9 / deblock=1:-3:-3 / analyse=0x3:0x133 / me=umh / subme=10 / psy=1 / fade_compensate=0.00 / psy_rd=1.00:0.00 / mixed_ref=1 / me_range=48 / chroma_me=1 / trellis=2 / 8x8dct=1 / cqm=0 / deadz / fast pskip=0 / chroma_qp_offset=-2 / threads=12 / lookahead_threads=2 / sliced_threads=0 / nr=0 / decimate=0 / interlaced=0 / bluray_compat=0 / c / bframes=8 / b_pyramid=2 / b_adapt=2 / b_bias=0 / direct=3 / weightb=1 / open_gop=0 / weightp=2 / keyint=250 / keyint_min=23 / scenecut=40 / intra_refresh=0 / rc=crf / mbtree=0 / crf=18.0000 / qcomp=0.60 / qpmin=0 / qpmax=69 / qpstep=4 / ip_ratio=1.30 / pb_ratio=1.20 / aq=3:0.80
Language                                 : English
Default                                  : Yes
Forced                                   : No

Audio
ID                                       : 2
Format                                   : AC-3
Format/Info                              : Audio Coding 3
Commercial name                          : Dolby Digital
Codec ID                                 : A_AC3
Duration                                 : 26 min 45 s
Bit rate mode                            : Constant
Bit rate                                 : 384 kb/s
Channel(s)                               : 6 channels
Channel layout                           : L R C LFE Ls Rs
Sampling rate                            : 48.0 kHz
Frame rate                               : 31.250 FPS (1536 SPF)
Compression mode                         : Lossy
Stream size                              : 73.5 MiB (7%)
Language                                 : English
Service kind                             : Complete Main
Default                                  : Yes
Forced                                   : No

Text #1
ID                                       : 3
Format                                   : UTF-8
Codec ID                                 : S_TEXT/UTF8
Codec ID/Info                            : UTF-8 Plain Text
Duration                                 : 25 min 11 s
Bit rate                                 : 124 b/s
Frame rate                               : 0.380 FPS
Count of elements                        : 574
Stream size                              : 23.0 KiB (0%)
Language                                 : English
Default                                  : No
Forced                                   : No

Text #2
ID                                       : 4
Format                                   : UTF-8
Codec ID                                 : S_TEXT/UTF8
Codec ID/Info                            : UTF-8 Plain Text
Duration                                 : 25 min 14 s
Bit rate                                 : 137 b/s
Frame rate                               : 0.388 FPS
Count of elements                        : 588
Stream size                              : 25.3 KiB (0%)
Title                                    : SDH
Language                                 : English
Default                                  : No
Forced                                   : No

Text #3
ID                                       : 5
Format                                   : UTF-8
Codec ID                                 : S_TEXT/UTF8
Codec ID/Info                            : UTF-8 Plain Text
Duration                                 : 25 min 18 s
Bit rate                                 : 121 b/s
Frame rate                               : 0.352 FPS
Count of elements                        : 535
Stream size                              : 22.5 KiB (0%)
Language                                 : French
Default                                  : No
Forced                                   : No



Download
File Container: MKV
Video/Audio Codec: H264 (HIGH) AC3
Video Resolution: 1280x720
Please Login to post a comment.
If you don't have any account, please Register.
  • Subscribe my Feeds
  • Facebook
Encoding Queue:  x264  x265

Latest Episodes

Popular Movies and TV Shows

  • Star Wars: The Bad Batch
  • FBI: International
  • X-Men '97
  • The Good Dinosaur
  • Gods of Egypt
  • FBI
  • FBI: Most Wanted
  • The Big Door Prize
  • MR-9: Do or Die
  • Drive-Away Dolls
  • Hanky Panky
  • Shogun
  • Monkey Man
  • Arthur the King
  • NCIS
  • Loot
  • Accidental Texan
  • NCIS: Hawai'i
  • The Neighborhood
  • Bob Hearts Abishola
  • Downtown Owl
  • Aftermath
  • One Life
  • Tracker
  • The Simpsons

Recent Comments

  • ReadyPlayerOne:

    THANK YOU

  • ReadyPlayerOne:

    THANK YOU

  • ReadyPlayerOne:

    THANK YOU

  • mentalityx:

    Thx dude.

  • 89M:

    NitroFlare's link is missing !!!
    Clicknupload's link is missing !!!

  • V4ND4L: May we get a ClicknUpload link for this, please. It's conspicuously missing for the team/size.
  • Bud:

    The file's half the size it should be & corrupted. Useless. Avoid.

  • mentalityx:

    Rad dude

  • mentalityx:

    Rad mate

  • waanaabe:

    I tried this file with 3 different players which all said they couldn't read the codec

  • Rosa: hi i have a question,this file size is 198mb,but on clickenupload is only 118mb is it right? what ha...
  • mike1204:

    Any reason why this episode is omitted from 'click'n'upload??

  • kellym2: I appreciate all the hard work the team does BUT there is no point in my paying for a Premium subscr...
  • Cinque_Persson: Why not skip the old news and hearsay and be constructive: what's the best alternatives for Win, Mac...
  • fallensammer:

    the file on click upload is 119mg onnly and is corrupted

Archives