Sign Up   |   Sign In  
Furiosa: A Mad Max SagaMasterChef AustraliaAutoeroticWWE NXTThe Feeling That the Time for Doing Something Has PassedViper of TehranDark MatterFire CountryUnder the BridgeMay DecemberShe Came to MeOur LoversThe Big Door PrizeWWE RawLootMahal ko ang mahal moYour Mother's SonSerbidorasThe Bold and the BeautifulThe SimpsonsWWE Smackdown!TarotThe First OmenCivil WarThe Daily Show

Announcements

04/18

2024

1

Comments

Chucky S03E06 Panic Room 720p AMZN WEB-DL DDP5 1 H 264-NTb
[RR/NF/CU]
Size: 1000MB mkv H264 (HIGH) / EAC3  HD  1280x640

Chucky
File Information
[img]http://lookpic.com/cdn/i2/t/0418202415474901-1.jpg[/img]
[img]http://lookpic.com/cdn/i2/t/0418202415474901-2.jpg[/img]
[img]http://lookpic.com/cdn/i2/t/0418202415474901-3.jpg[/img]

General
Unique ID                                : 77110318440378926051087088834305385098 (0x3A02E839B547AA69E846DD00F258E28A)
Complete name                            : Chucky.S03E06.Panic.Room.720p.AMZN.WEB-DL.DDP5.1.H.264-NTb.mkv
Format                                   : Matroska
Format version                           : Version 4
File size                                : 1 000 MiB
Duration                                 : 41 min 52 s
Overall bit rate                         : 3 339 kb/s
Frame rate                               : 23.976 FPS
Writing application                      : mkvmerge v81.0 ('Milliontown') 64-bit
Writing library                          : libebml v1.4.4 + libmatroska v1.7.1

Video
ID                                       : 1
Format                                   : AVC
Format/Info                              : Advanced Video Codec
Format profile                           : High@L3.1
Format settings                          : CABAC / 4 Ref Frames
Format settings, CABAC                   : Yes
Format settings, Reference frames        : 4 frames
Codec ID                                 : V_MPEG4/ISO/AVC
Duration                                 : 41 min 52 s
Bit rate mode                            : Constant
Bit rate                                 : 2 697 kb/s
Nominal bit rate                         : 6 000 kb/s
Width                                    : 1 280 pixels
Height                                   : 640 pixels
Display aspect ratio                     : 2.000
Frame rate mode                          : Constant
Frame rate                               : 23.976 (24000/1001) FPS
Color space                              : YUV
Chroma subsampling                       : 4:2:0
Bit depth                                : 8 bits
Scan type                                : Progressive
Bits/(Pixel*Frame)                       : 0.137
Stream size                              : 808 MiB (81%)
Default                                  : Yes
Forced                                   : No
Color range                              : Limited
Color primaries                          : BT.709
Transfer characteristics                 : BT.709
Matrix coefficients                      : BT.709

Audio
ID                                       : 2
Format                                   : E-AC-3
Format/Info                              : Enhanced AC-3
Commercial name                          : Dolby Digital Plus
Codec ID                                 : A_EAC3
Duration                                 : 41 min 52 s
Bit rate mode                            : Constant
Bit rate                                 : 640 kb/s
Channel(s)                               : 6 channels
Channel layout                           : L R C LFE Ls Rs
Sampling rate                            : 48.0 kHz
Frame rate                               : 31.250 FPS (1536 SPF)
Compression mode                         : Lossy
Stream size                              : 192 MiB (19%)
Language                                 : English (US)
Service kind                             : Complete Main
Default                                  : Yes
Forced                                   : No

Text #1
ID                                       : 3
Format                                   : UTF-8
Codec ID                                 : S_TEXT/UTF8
Codec ID/Info                            : UTF-8 Plain Text
Duration                                 : 40 min 42 s
Bit rate                                 : 56 b/s
Frame rate                               : 0.245 FPS
Count of elements                        : 599
Stream size                              : 16.9 KiB (0%)
Language                                 : English (US)
Default                                  : No
Forced                                   : No

Text #2
ID                                       : 4
Format                                   : UTF-8
Codec ID                                 : S_TEXT/UTF8
Codec ID/Info                            : UTF-8 Plain Text
Duration                                 : 41 min 28 s
Bit rate                                 : 63 b/s
Frame rate                               : 0.304 FPS
Count of elements                        : 757
Stream size                              : 19.3 KiB (0%)
Title                                    : SDH
Language                                 : English (US)
Default                                  : No
Forced                                   : No



Download
File Container: MKV
Video/Audio Codec: H264 (HIGH) EAC3
Video Resolution: 1280x640

1 Response to "[RR/NF/CU] Chucky S03E06 Panic Room 720p AMZN WEB-DL DDP5 1 H 264-NTb (1000MB)"
04/18/24
18:03:22
ReadyPlayerOne

Thank You

Please Login to post a comment.
If you don't have any account, please Register.
  • Subscribe my Feeds
  • Facebook
Encoding Queue:  x264  x265

Latest Episodes

Popular Movies and TV Shows

  • Furiosa: A Mad Max Saga
  • MasterChef Australia
  • Autoerotic
  • WWE NXT
  • The Feeling That the Time for Doing Something Has Passed
  • Viper of Tehran
  • Dark Matter
  • Fire Country
  • Under the Bridge
  • May December
  • She Came to Me
  • Our Lovers
  • The Big Door Prize
  • WWE Raw
  • Loot
  • Mahal ko ang mahal mo
  • Your Mother's Son
  • Serbidoras
  • The Bold and the Beautiful
  • The Simpsons
  • WWE Smackdown!
  • Tarot
  • The First Omen
  • Civil War
  • The Daily Show

Recent Comments

  • timt:

    Junk, CAM

  • upx:

    WARNING:This is NOT a BluRay rip. It's a CAMrip.

  • Bud: Is clicknupload borked for anyone else now, or is it just me? In recent months it's only worked in...
  • mentalityx:

    Rad bloke!

  • waanaabe: I hope someone follows through with the rest! also, did not check every post but hoping future ones ...
  • Demonz:

    Holy popups ClickNupload

  • rambaldi70:

    this release sort cut! 1h33m12 !
    imdb - 1h 54m

  • rambaldi70: This release the first bad source 1h33m12 - stop the play this release sort cut! 1h33m12 ! imdb - 1h...
  • rambaldi70:

    this release sort cut! 1h33m12 !
    imdb - 1h 54m

  • dilliboy: Will we ever see these RMTeam releases ever again? I hope they're not lost to the digital graveyard ...
  • kang:

    NitroFlare's link is missing...

  • kang:

    NitroFlare's link is missing...

  • tchamast:

    @Wrapt

    I've seen that too, don't know why.

  • Rafi85: Hi thx for the 14th season. Is it possible to reupload some episodes plz they were removed. These ar...
  • KubrickFan:

    Any possibility of a fresh link for this?

  • GubeShitemon: This is a different movie to the artwork version. Not the Dylan McDermott film but the Ben Affleck f...
  • drorsabi1:

    @admin
    Please add "My Adventures With Superman Season 2 "

  • Wrapt: Hahahaha yeah right make a liar out of me but I was referring to comments made about a movie or an e...
  • Wrapt: Comments are not always appearing in the Recent Comments list after submitting a comment any reason ...
  • waanaabe:

    warning: speaks German Swedish and French for those without English subs...

Archives