Sign Up   |   Sign In  
Mayor of KingstownHotel CocaineMy Adventures with SupermanDaaaaaali!Look to the LightYou Can Live ForeverInterview with the VampirePrincess PowerBilly the KidOctopussyA Ring of Endless LightReady to RunThe Bold and the BeautifulLadies in BlackThe Loud HouseKung Fu HustleLicence to KillThere's Something About MaryWWE NXTWalkerFBI: Most WantedInside Out 2Vice News Presents: Mass Shooting AmericaMy Sexual Abuse: The SitcomThe Daily Show

Announcements

05/24

2024

1

Comments

Elsbeth S01E10 A Fitting Finale 720p AMZN WEB-DL DDP5 1 H 264-NTb
[RR/NF/CU]
Size: 1.2GB mkv H264 (HIGH) / EAC3  HD  1280x720

Elsbeth
File Information
[img]http://lookpic.com/cdn/i2/t/0524202408211026-1.jpg[/img]
[img]http://lookpic.com/cdn/i2/t/0524202408211026-2.jpg[/img]
[img]http://lookpic.com/cdn/i2/t/0524202408211026-3.jpg[/img]

General
Unique ID                                : 227710266398155877402434893856748277494 (0xAB4F66EE103FB189FAFD7384C6A30EF6)
Complete name                            : Elsbeth S01E10 A Fitting Finale 720p AMZN WEB-DL DDP5 1 H 264-NTb.mkv
Format                                   : Matroska
Format version                           : Version 4
File size                                : 1.22 GiB
Duration                                 : 43 min 12 s
Overall bit rate                         : 4 051 kb/s
Frame rate                               : 23.976 FPS
Writing application                      : mkvmerge v84.0 ('Sleeper') 64-bit
Writing library                          : libebml v1.4.5 + libmatroska v1.7.1

Video
ID                                       : 1
Format                                   : AVC
Format/Info                              : Advanced Video Codec
Format profile                           : High@L3.1
Format settings                          : CABAC / 4 Ref Frames
Format settings, CABAC                   : Yes
Format settings, Reference frames        : 4 frames
Codec ID                                 : V_MPEG4/ISO/AVC
Duration                                 : 43 min 12 s
Bit rate mode                            : Constant
Bit rate                                 : 3 409 kb/s
Nominal bit rate                         : 6 000 kb/s
Width                                    : 1 280 pixels
Height                                   : 720 pixels
Display aspect ratio                     : 16:9
Frame rate mode                          : Constant
Frame rate                               : 23.976 (24000/1001) FPS
Color space                              : YUV
Chroma subsampling                       : 4:2:0
Bit depth                                : 8 bits
Scan type                                : Progressive
Bits/(Pixel*Frame)                       : 0.154
Stream size                              : 1.03 GiB (84%)
Default                                  : Yes
Forced                                   : No
Color range                              : Limited
Color primaries                          : BT.709
Transfer characteristics                 : BT.709
Matrix coefficients                      : BT.709

Audio
ID                                       : 2
Format                                   : E-AC-3
Format/Info                              : Enhanced AC-3
Commercial name                          : Dolby Digital Plus
Codec ID                                 : A_EAC3
Duration                                 : 43 min 12 s
Bit rate mode                            : Constant
Bit rate                                 : 640 kb/s
Channel(s)                               : 6 channels
Channel layout                           : L R C LFE Ls Rs
Sampling rate                            : 48.0 kHz
Frame rate                               : 31.250 FPS (1536 SPF)
Compression mode                         : Lossy
Stream size                              : 198 MiB (16%)
Language                                 : English (US)
Service kind                             : Complete Main
Default                                  : Yes
Forced                                   : No

Text #1
ID                                       : 3
Format                                   : UTF-8
Codec ID                                 : S_TEXT/UTF8
Codec ID/Info                            : UTF-8 Plain Text
Duration                                 : 42 min 26 s
Bit rate                                 : 88 b/s
Frame rate                               : 0.370 FPS
Count of elements                        : 943
Stream size                              : 27.4 KiB (0%)
Language                                 : English (US)
Default                                  : No
Forced                                   : No

Text #2
ID                                       : 4
Format                                   : UTF-8
Codec ID                                 : S_TEXT/UTF8
Codec ID/Info                            : UTF-8 Plain Text
Duration                                 : 42 min 38 s
Bit rate                                 : 91 b/s
Frame rate                               : 0.382 FPS
Count of elements                        : 978
Stream size                              : 28.5 KiB (0%)
Title                                    : SDH
Language                                 : English (US)
Default                                  : No
Forced                                   : No



Download
File Container: MKV
Video/Audio Codec: H264 (HIGH) EAC3
Video Resolution: 1280x720

1 Response to "[RR/NF/CU] Elsbeth S01E10 A Fitting Finale 720p AMZN WEB-DL DDP5 1 H 264-NTb (1.2GB)"
05/24/24
14:00:28
ReadyPlayerOne

Thank You

Please Login to post a comment.
If you don't have any account, please Register.
  • Subscribe my Feeds
  • Facebook
Encoding Queue:  x264  x265

Latest Episodes

Popular Movies and TV Shows

  • Mayor of Kingstown
  • Hotel Cocaine
  • My Adventures with Superman
  • Daaaaaali!
  • Look to the Light
  • You Can Live Forever
  • Interview with the Vampire
  • Princess Power
  • Billy the Kid
  • Octopussy
  • A Ring of Endless Light
  • Ready to Run
  • The Bold and the Beautiful
  • Ladies in Black
  • The Loud House
  • Kung Fu Hustle
  • Licence to Kill
  • There's Something About Mary
  • WWE NXT
  • Walker
  • FBI: Most Wanted
  • Inside Out 2
  • Vice News Presents: Mass Shooting America
  • My Sexual Abuse: The Sitcom
  • The Daily Show

Recent Comments

Archives