Sign Up   |   Sign In  
X-Men '97Ghostbusters: Frozen EmpireStar Wars: The Bad BatchUnder the BridgeAn American Bombing: The Road to April 19thLa noche de los asesinosFBIFBI: InternationalThe Cleaning LadyGodzilla x Kong: The New EmpireThe Truth vs. Alex JonesDune: Part TwoFBI: Most WantedPalm RoyaleShogunLa margeImmaculateJimmy Carr: Natural Born KillerNCISCurb Your EnthusiasmNCIS: Hawai'iSweet DreamsProject DorothyThe Deadly SwarmFallout

Announcements

04/01

2024

No

Comments

How To Fail As A Popstar S01 1080p WEBRip x264-BAE
[RR/NF]
Size: 2.6GB mkv H264 (HIGH) / EAC3  HD  1920x1080 TV Pack

How to Fail as a Popstar
  • How to Fail as a Popstar (2023-)
  • Genre: Comedy
  • Country: Canada
  • Original Network: CBC
  • Storyline: In order to become a popstar, a queer brown boy with a huge voice is doing everything he can. Told by the queer trans femme that boy becomes, looking back on how and why that dream was never realized.
File Information
General
Unique ID                                : 2072530470444744889404573210637116559 (0x18F27A4354D4C77679D15FE00EE248F)
Complete name                            : How.To.Fail.As.A.Popstar.S01E01.1080p.WEBRip.x264-BAE.mkv
Format                                   : Matroska
Format version                           : Version 4
File size                                : 266 MiB
Duration                                 : 8 min 43 s
Overall bit rate                         : 4 256 kb/s
Frame rate                               : 23.976 FPS
Encoded date                             : 2023-10-13 21:40:31 UTC
Writing application                      : mkvmerge v79.0 ('Funeral Pyres') 64-bit
Writing library                          : libebml v1.4.4 + libmatroska v1.7.1 / Lavf60.5.100

Video
ID                                       : 1
Format                                   : AVC
Format/Info                              : Advanced Video Codec
Format profile                           : High@L4.1
Format settings                          : CABAC / 4 Ref Frames
Format settings, CABAC                   : Yes
Format settings, Reference frames        : 4 frames
Codec ID                                 : V_MPEG4/ISO/AVC
Duration                                 : 8 min 43 s
Bit rate                                 : 4 062 kb/s
Width                                    : 1 920 pixels
Height                                   : 1 080 pixels
Display aspect ratio                     : 16:9
Frame rate mode                          : Constant
Frame rate                               : 23.976 (24000/1001) FPS
Color space                              : YUV
Chroma subsampling                       : 4:2:0
Bit depth                                : 8 bits
Scan type                                : Progressive
Bits/(Pixel*Frame)                       : 0.082
Stream size                              : 254 MiB (95%)
Writing library                          : x264 core 164 r3106 eaa68fa
 Encoding settings                        : cabac=1 / ref=4 / deblock=1:-3:-3 / analyse=0x3:0x133 / me=umh / subme=9 / psy=1 / psy_rd=1.00:0.00 / mixed_ref=1 / me_range=16 / chroma_me=1 / trellis=2 / 8x8dct=1 / cqm=0 / deadz / fast pskip=0 / chroma_qp_offset=-2 / threads=18 / lookahead_threads=1 / sliced_threads=0 / nr=0 / decimate=1 / interlaced=0 / bluray_compat=0 / c / bframes=3 / b_pyramid=2 / b_adapt=2 / b_bias=0 / direct=3 / weightb=1 / open_gop=0 / weightp=2 / keyint=250 / keyint_min=23 / scenecut=40 / intra_refresh=0 / rc_lookahead=60 / rc=crf / mbtree=1 / crf=17.0 / qcomp=0.60 / qpmin=0 / qpmax=69 / qpstep=4 / ip_ratio=1.40 / aq=1:0.80
Language                                 : English
Default                                  : Yes
Forced                                   : No
Color range                              : Limited
Matrix coefficients                      : BT.709

Audio
ID                                       : 2
Format                                   : E-AC-3
Format/Info                              : Enhanced AC-3
Commercial name                          : Dolby Digital Plus
Format settings                          : Dolby Surround EX
Codec ID                                 : A_EAC3
Duration                                 : 8 min 43 s
Bit rate mode                            : Constant
Bit rate                                 : 192 kb/s
Channel(s)                               : 6 channels
Channel layout                           : L R C LFE Ls Rs
Sampling rate                            : 48.0 kHz
Frame rate                               : 31.250 FPS (1536 SPF)
Compression mode                         : Lossy
Stream size                              : 12.0 MiB (5%)
Language                                 : English
Service kind                             : Complete Main
Default                                  : Yes
Forced                                   : No

Text
ID                                       : 3
Format                                   : UTF-8
Codec ID                                 : S_TEXT/UTF8
Codec ID/Info                            : UTF-8 Plain Text
Duration                                 : 8 min 39 s
Bit rate                                 : 94 b/s
Frame rate                               : 0.368 FPS
Count of elements                        : 191
Stream size                              : 6.02 KiB (0%)
Language                                 : English
Default                                  : No
Forced                                   : No
Download
File Container: MKV
Video/Audio Codec: H264 (HIGH) EAC3
Video Resolution: 1920x1080
Please Login to post a comment.
If you don't have any account, please Register.
  • Subscribe my Feeds
  • Facebook
Encoding Queue:  x264  x265

Latest Episodes

Popular Movies and TV Shows

  • X-Men '97
  • Ghostbusters: Frozen Empire
  • Star Wars: The Bad Batch
  • Under the Bridge
  • An American Bombing: The Road to April 19th
  • La noche de los asesinos
  • FBI
  • FBI: International
  • The Cleaning Lady
  • Godzilla x Kong: The New Empire
  • The Truth vs. Alex Jones
  • Dune: Part Two
  • FBI: Most Wanted
  • Palm Royale
  • Shogun
  • La marge
  • Immaculate
  • Jimmy Carr: Natural Born Killer
  • NCIS
  • Curb Your Enthusiasm
  • NCIS: Hawai'i
  • Sweet Dreams
  • Project Dorothy
  • The Deadly Swarm
  • Fallout

Recent Comments

  • ubirattan:

    Mandem um Fikper, por favor.

  • kellym2: No answer yet for my query - why all the episodes "server under maintenance" on some episo...
  • Majnon:

    Rapidrar links are dead :(

  • Rake:

    Loads of "Server is under maintenance" with RR theese days...

  • kellym2: Why am I getting "Server is in maintenance mode" on some episodes of a series and not on o...
  • Bud:

    Are you ever going to put up Thursday's episode with Liev Schreiber?

  • alp-engin:

    When will that maintenance be over? Please...

  • mentalityx:

    Rad bloke

  • DownloadHostInspector:

    so far these RMTeam uploads always have a working link. DownloadHostInspector approved!

  • DownloadHostInspector:

    ah yes, this upload has a host that works. clicknupload. DownloadHostInspector approved!

  • DownloadHostInspector: Why are all the download hosts trash? none of them let you download it

Archives