Sign Up   |   Sign In  
Criminal MindsThe ChiBad DinosaursKim's VideoBirdemic 2: The ResurrectionCaptivating the KingThe Loud HousePower Book II: GhostI Saw the TV GlowSpecies IIUltraman: RisingWWE NXTThe BoysThe Bold and the BeautifulThe GrabHannah Einbinder: Everything Must GoExhumaWalkerEvilWWE RawBratsMower MinionsNotas sobre un veranoThe Daily ShowSurvivor

Announcements

05/29

2024

1

Comments

Loot S02E10 We Shouldnt Exist 720p ATVP WEB-DL DDP5 1 H 264-NTb
[RR/NF/CU]
Size: 774MB mkv H264 (HIGH) / EAC3  HD  1356x678

Loot
File Information
[img]http://lookpic.com/cdn/i2/t/0529202403180388-1.jpg[/img]
[img]http://lookpic.com/cdn/i2/t/0529202403180388-2.jpg[/img]
[img]http://lookpic.com/cdn/i2/t/0529202403180388-3.jpg[/img]

General
Unique ID                                : 277033399105810370354742502776755987333 (0xD06AB11FEBC79C89A35F5C4EFAD02385)
Complete name                            : Loot.S02E10.We.Shouldnt.Exist.720p.ATVP.WEB-DL.DDP5.1.H.264-NTb.mkv
Format                                   : Matroska
Format version                           : Version 4
File size                                : 774 MiB
Duration                                 : 30 min 6 s
Overall bit rate                         : 3 594 kb/s
Frame rate                               : 23.976 FPS
Writing application                      : mkvmerge v84.0 ('Sleeper') 64-bit
Writing library                          : libebml v1.4.5 + libmatroska v1.7.1

Video
ID                                       : 1
Format                                   : AVC
Format/Info                              : Advanced Video Codec
Format profile                           : High@L3.2
Format settings                          : CABAC / 5 Ref Frames
Format settings, CABAC                   : Yes
Format settings, Reference frames        : 5 frames
Codec ID                                 : V_MPEG4/ISO/AVC
Duration                                 : 30 min 6 s
Bit rate                                 : 2 817 kb/s
Width                                    : 1 356 pixels
Height                                   : 678 pixels
Display aspect ratio                     : 2.000
Frame rate mode                          : Constant
Frame rate                               : 23.976 (24000/1001) FPS
Color space                              : YUV
Chroma subsampling                       : 4:2:0
Bit depth                                : 8 bits
Scan type                                : Progressive
Bits/(Pixel*Frame)                       : 0.128
Stream size                              : 607 MiB (78%)
Default                                  : Yes
Forced                                   : No
Color range                              : Limited
Color primaries                          : BT.709
Transfer characteristics                 : BT.709
Matrix coefficients                      : BT.709

Audio
ID                                       : 2
Format                                   : E-AC-3 JOC
Format/Info                              : Enhanced AC-3 with Joint Object Coding
Commercial name                          : Dolby Digital Plus with Dolby Atmos
Codec ID                                 : A_EAC3
Duration                                 : 30 min 6 s
Bit rate mode                            : Constant
Bit rate                                 : 768 kb/s
Channel(s)                               : 6 channels
Channel layout                           : L R C LFE Ls Rs
Sampling rate                            : 48.0 kHz
Frame rate                               : 31.250 FPS (1536 SPF)
Compression mode                         : Lossy
Stream size                              : 165 MiB (21%)
Language                                 : English
Service kind                             : Complete Main
Default                                  : Yes
Forced                                   : No
Complexity index                         : 16
Number of dynamic objects                : 15
Bed channel count                        : 1 channel
Bed channel configuration                : LFE

Text #1
ID                                       : 3
Format                                   : UTF-8
Codec ID                                 : S_TEXT/UTF8
Codec ID/Info                            : UTF-8 Plain Text
Duration                                 : 28 min 42 s
Bit rate                                 : 82 b/s
Frame rate                               : 0.286 FPS
Count of elements                        : 492
Stream size                              : 17.3 KiB (0%)
Language                                 : English
Default                                  : No
Forced                                   : No

Text #2
ID                                       : 4
Format                                   : UTF-8
Codec ID                                 : S_TEXT/UTF8
Codec ID/Info                            : UTF-8 Plain Text
Duration                                 : 28 min 50 s
Bit rate                                 : 92 b/s
Frame rate                               : 0.309 FPS
Count of elements                        : 535
Stream size                              : 19.6 KiB (0%)
Title                                    : SDH
Language                                 : English
Default                                  : No
Forced                                   : No

Text #3
ID                                       : 5
Format                                   : UTF-8
Codec ID                                 : S_TEXT/UTF8
Codec ID/Info                            : UTF-8 Plain Text
Duration                                 : 29 min 39 s
Bit rate                                 : 109 b/s
Frame rate                               : 0.282 FPS
Count of elements                        : 501
Stream size                              : 23.8 KiB (0%)
Language                                 : Arabic
Default                                  : No
Forced                                   : No

Text #4
ID                                       : 6
Format                                   : UTF-8
Codec ID                                 : S_TEXT/UTF8
Codec ID/Info                            : UTF-8 Plain Text
Duration                                 : 29 min 39 s
Bit rate                                 : 107 b/s
Frame rate                               : 0.216 FPS
Count of elements                        : 384
Stream size                              : 23.4 KiB (0%)
Language                                 : Bulgarian
Default                                  : No
Forced                                   : No

Text #5
ID                                       : 7
Format                                   : UTF-8
Codec ID                                 : S_TEXT/UTF8
Codec ID/Info                            : UTF-8 Plain Text
Duration                                 : 29 min 39 s
Bit rate                                 : 67 b/s
Frame rate                               : 0.280 FPS
Count of elements                        : 499
Stream size                              : 14.7 KiB (0%)
Title                                    : Chinese (Simplified)
Language                                 : Mandarin (Hans)
Default                                  : No
Forced                                   : No

Text #6
ID                                       : 8
Format                                   : UTF-8
Codec ID                                 : S_TEXT/UTF8
Codec ID/Info                            : UTF-8 Plain Text
Duration                                 : 29 min 39 s
Bit rate                                 : 71 b/s
Frame rate                               : 0.282 FPS
Count of elements                        : 502
Stream size                              : 15.5 KiB (0%)
Title                                    : Chinese (Traditional)
Language                                 : Mandarin (Hant)
Default                                  : No
Forced                                   : No

Text #7
ID                                       : 9
Format                                   : UTF-8
Codec ID                                 : S_TEXT/UTF8
Codec ID/Info                            : UTF-8 Plain Text
Duration                                 : 29 min 39 s
Bit rate                                 : 70 b/s
Frame rate                               : 0.265 FPS
Count of elements                        : 471
Stream size                              : 15.3 KiB (0%)
Language                                 : Czech
Default                                  : No
Forced                                   : No

Text #8
ID                                       : 10
Format                                   : UTF-8
Codec ID                                 : S_TEXT/UTF8
Codec ID/Info                            : UTF-8 Plain Text
Duration                                 : 29 min 39 s
Bit rate                                 : 69 b/s
Frame rate                               : 0.214 FPS
Count of elements                        : 381
Stream size                              : 15.1 KiB (0%)
Language                                 : Danish
Default                                  : No
Forced                                   : No

Text #9
ID                                       : 11
Format                                   : UTF-8
Codec ID                                 : S_TEXT/UTF8
Codec ID/Info                            : UTF-8 Plain Text
Duration                                 : 29 min 23 s
Bit rate                                 : 73 b/s
Frame rate                               : 0.260 FPS
Count of elements                        : 458
Stream size                              : 15.9 KiB (0%)
Language                                 : German
Default                                  : No
Forced                                   : No

Text #10
ID                                       : 12
Format                                   : UTF-8
Codec ID                                 : S_TEXT/UTF8
Codec ID/Info                            : UTF-8 Plain Text
Duration                                 : 29 min 39 s
Bit rate                                 : 126 b/s
Frame rate                               : 0.251 FPS
Count of elements                        : 446
Stream size                              : 27.5 KiB (0%)
Language                                 : Greek
Default                                  : No
Forced                                   : No

Text #11
ID                                       : 13
Format                                   : UTF-8
Codec ID                                 : S_TEXT/UTF8
Codec ID/Info                            : UTF-8 Plain Text
Duration                                 : 29 min 39 s
Bit rate                                 : 75 b/s
Frame rate                               : 0.280 FPS
Count of elements                        : 499
Stream size                              : 16.5 KiB (0%)
Title                                    : Spanish (Latin America)
Language                                 : Spanish (Latin America)
Default                                  : No
Forced                                   : No

Text #12
ID                                       : 14
Format                                   : UTF-8
Codec ID                                 : S_TEXT/UTF8
Codec ID/Info                            : UTF-8 Plain Text
Duration                                 : 29 min 39 s
Bit rate                                 : 81 b/s
Frame rate                               : 0.274 FPS
Count of elements                        : 487
Stream size                              : 17.7 KiB (0%)
Title                                    : Spanish (Spain)
Language                                 : Spanish (ES)
Default                                  : No
Forced                                   : No

Text #13
ID                                       : 15
Format                                   : UTF-8
Codec ID                                 : S_TEXT/UTF8
Codec ID/Info                            : UTF-8 Plain Text
Duration                                 : 29 min 39 s
Bit rate                                 : 74 b/s
Frame rate                               : 0.262 FPS
Count of elements                        : 467
Stream size                              : 16.1 KiB (0%)
Language                                 : Estonian
Default                                  : No
Forced                                   : No

Text #14
ID                                       : 16
Format                                   : UTF-8
Codec ID                                 : S_TEXT/UTF8
Codec ID/Info                            : UTF-8 Plain Text
Duration                                 : 29 min 39 s
Bit rate                                 : 74 b/s
Frame rate                               : 0.253 FPS
Count of elements                        : 450
Stream size                              : 16.3 KiB (0%)
Language                                 : Finnish
Default                                  : No
Forced                                   : No

Text #15
ID                                       : 17
Format                                   : UTF-8
Codec ID                                 : S_TEXT/UTF8
Codec ID/Info                            : UTF-8 Plain Text
Duration                                 : 29 min 8 s
Bit rate                                 : 70 b/s
Frame rate                               : 0.269 FPS
Count of elements                        : 470
Stream size                              : 15.1 KiB (0%)
Title                                    : French (Canada)
Language                                 : French (CA)
Default                                  : No
Forced                                   : No

Text #16
ID                                       : 18
Format                                   : UTF-8
Codec ID                                 : S_TEXT/UTF8
Codec ID/Info                            : UTF-8 Plain Text
Duration                                 : 29 min 8 s
Bit rate                                 : 70 b/s
Frame rate                               : 0.268 FPS
Count of elements                        : 469
Stream size                              : 15.1 KiB (0%)
Title                                    : French (France)
Language                                 : French (FR)
Default                                  : No
Forced                                   : No

Text #17
ID                                       : 19
Format                                   : UTF-8
Codec ID                                 : S_TEXT/UTF8
Codec ID/Info                            : UTF-8 Plain Text
Duration                                 : 29 min 39 s
Bit rate                                 : 108 b/s
Frame rate                               : 0.282 FPS
Count of elements                        : 501
Stream size                              : 23.6 KiB (0%)
Language                                 : Hebrew
Default                                  : No
Forced                                   : No

Text #18
ID                                       : 20
Format                                   : UTF-8
Codec ID                                 : S_TEXT/UTF8
Codec ID/Info                            : UTF-8 Plain Text
Duration                                 : 29 min 39 s
Bit rate                                 : 214 b/s
Frame rate                               : 0.282 FPS
Count of elements                        : 502
Stream size                              : 46.5 KiB (0%)
Language                                 : Hindi
Default                                  : No
Forced                                   : No

Text #19
ID                                       : 21
Format                                   : UTF-8
Codec ID                                 : S_TEXT/UTF8
Codec ID/Info                            : UTF-8 Plain Text
Duration                                 : 29 min 39 s
Bit rate                                 : 81 b/s
Frame rate                               : 0.281 FPS
Count of elements                        : 500
Stream size                              : 17.7 KiB (0%)
Language                                 : Hungarian
Default                                  : No
Forced                                   : No

Text #20
ID                                       : 22
Format                                   : UTF-8
Codec ID                                 : S_TEXT/UTF8
Codec ID/Info                            : UTF-8 Plain Text
Duration                                 : 29 min 39 s
Bit rate                                 : 76 b/s
Frame rate                               : 0.281 FPS
Count of elements                        : 500
Stream size                              : 16.6 KiB (0%)
Language                                 : Indonesian
Default                                  : No
Forced                                   : No

Text #21
ID                                       : 23
Format                                   : UTF-8
Codec ID                                 : S_TEXT/UTF8
Codec ID/Info                            : UTF-8 Plain Text
Duration                                 : 29 min 25 s
Bit rate                                 : 81 b/s
Frame rate                               : 0.277 FPS
Count of elements                        : 489
Stream size                              : 17.6 KiB (0%)
Language                                 : Italian
Default                                  : No
Forced                                   : No

Text #22
ID                                       : 24
Format                                   : UTF-8
Codec ID                                 : S_TEXT/UTF8
Codec ID/Info                            : UTF-8 Plain Text
Duration                                 : 29 min 45 s
Bit rate                                 : 65 b/s
Frame rate                               : 0.271 FPS
Count of elements                        : 484
Stream size                              : 14.3 KiB (0%)
Language                                 : Japanese
Default                                  : No
Forced                                   : No

Text #23
ID                                       : 25
Format                                   : UTF-8
Codec ID                                 : S_TEXT/UTF8
Codec ID/Info                            : UTF-8 Plain Text
Duration                                 : 29 min 39 s
Bit rate                                 : 81 b/s
Frame rate                               : 0.280 FPS
Count of elements                        : 498
Stream size                              : 17.7 KiB (0%)
Language                                 : Korean
Default                                  : No
Forced                                   : No

Text #24
ID                                       : 26
Format                                   : UTF-8
Codec ID                                 : S_TEXT/UTF8
Codec ID/Info                            : UTF-8 Plain Text
Duration                                 : 29 min 39 s
Bit rate                                 : 80 b/s
Frame rate                               : 0.280 FPS
Count of elements                        : 499
Stream size                              : 17.5 KiB (0%)
Language                                 : Lithuanian
Default                                  : No
Forced                                   : No

Text #25
ID                                       : 27
Format                                   : UTF-8
Codec ID                                 : S_TEXT/UTF8
Codec ID/Info                            : UTF-8 Plain Text
Duration                                 : 29 min 39 s
Bit rate                                 : 81 b/s
Frame rate                               : 0.279 FPS
Count of elements                        : 497
Stream size                              : 17.6 KiB (0%)
Language                                 : Latvian
Default                                  : No
Forced                                   : No

Text #26
ID                                       : 28
Format                                   : UTF-8
Codec ID                                 : S_TEXT/UTF8
Codec ID/Info                            : UTF-8 Plain Text
Duration                                 : 29 min 39 s
Bit rate                                 : 77 b/s
Frame rate                               : 0.280 FPS
Count of elements                        : 498
Stream size                              : 16.9 KiB (0%)
Language                                 : Malay
Default                                  : No
Forced                                   : No

Text #27
ID                                       : 29
Format                                   : UTF-8
Codec ID                                 : S_TEXT/UTF8
Codec ID/Info                            : UTF-8 Plain Text
Duration                                 : 29 min 39 s
Bit rate                                 : 67 b/s
Frame rate                               : 0.198 FPS
Count of elements                        : 352
Stream size                              : 14.7 KiB (0%)
Language                                 : Dutch
Default                                  : No
Forced                                   : No

Text #28
ID                                       : 30
Format                                   : UTF-8
Codec ID                                 : S_TEXT/UTF8
Codec ID/Info                            : UTF-8 Plain Text
Duration                                 : 29 min 39 s
Bit rate                                 : 74 b/s
Frame rate                               : 0.219 FPS
Count of elements                        : 389
Stream size                              : 16.3 KiB (0%)
Language                                 : Norwegian
Default                                  : No
Forced                                   : No

Text #29
ID                                       : 31
Format                                   : UTF-8
Codec ID                                 : S_TEXT/UTF8
Codec ID/Info                            : UTF-8 Plain Text
Duration                                 : 29 min 39 s
Bit rate                                 : 77 b/s
Frame rate                               : 0.279 FPS
Count of elements                        : 497
Stream size                              : 16.8 KiB (0%)
Language                                 : Polish
Default                                  : No
Forced                                   : No

Text #30
ID                                       : 32
Format                                   : UTF-8
Codec ID                                 : S_TEXT/UTF8
Codec ID/Info                            : UTF-8 Plain Text
Duration                                 : 29 min 39 s
Bit rate                                 : 72 b/s
Frame rate                               : 0.274 FPS
Count of elements                        : 487
Stream size                              : 15.6 KiB (0%)
Title                                    : Portuguese
Language                                 : Portuguese
Default                                  : No
Forced                                   : No

Text #31
ID                                       : 33
Format                                   : UTF-8
Codec ID                                 : S_TEXT/UTF8
Codec ID/Info                            : UTF-8 Plain Text
Duration                                 : 29 min 39 s
Bit rate                                 : 72 b/s
Frame rate                               : 0.270 FPS
Count of elements                        : 480
Stream size                              : 15.8 KiB (0%)
Title                                    : Portuguese (Brazil)
Language                                 : Portuguese (BR)
Default                                  : No
Forced                                   : No

Text #32
ID                                       : 34
Format                                   : UTF-8
Codec ID                                 : S_TEXT/UTF8
Codec ID/Info                            : UTF-8 Plain Text
Duration                                 : 29 min 39 s
Bit rate                                 : 119 b/s
Frame rate                               : 0.264 FPS
Count of elements                        : 469
Stream size                              : 25.9 KiB (0%)
Language                                 : Russian
Default                                  : No
Forced                                   : No

Text #33
ID                                       : 35
Format                                   : UTF-8
Codec ID                                 : S_TEXT/UTF8
Codec ID/Info                            : UTF-8 Plain Text
Duration                                 : 29 min 39 s
Bit rate                                 : 75 b/s
Frame rate                               : 0.279 FPS
Count of elements                        : 497
Stream size                              : 16.4 KiB (0%)
Language                                 : Slovak
Default                                  : No
Forced                                   : No

Text #34
ID                                       : 36
Format                                   : UTF-8
Codec ID                                 : S_TEXT/UTF8
Codec ID/Info                            : UTF-8 Plain Text
Duration                                 : 29 min 39 s
Bit rate                                 : 62 b/s
Frame rate                               : 0.214 FPS
Count of elements                        : 380
Stream size                              : 13.7 KiB (0%)
Language                                 : Slovenian
Default                                  : No
Forced                                   : No

Text #35
ID                                       : 37
Format                                   : UTF-8
Codec ID                                 : S_TEXT/UTF8
Codec ID/Info                            : UTF-8 Plain Text
Duration                                 : 29 min 39 s
Bit rate                                 : 67 b/s
Frame rate                               : 0.214 FPS
Count of elements                        : 381
Stream size                              : 14.7 KiB (0%)
Language                                 : Swedish
Default                                  : No
Forced                                   : No

Text #36
ID                                       : 38
Format                                   : UTF-8
Codec ID                                 : S_TEXT/UTF8
Codec ID/Info                            : UTF-8 Plain Text
Duration                                 : 29 min 39 s
Bit rate                                 : 258 b/s
Frame rate                               : 0.282 FPS
Count of elements                        : 501
Stream size                              : 56.1 KiB (0%)
Language                                 : Tamil
Default                                  : No
Forced                                   : No

Text #37
ID                                       : 39
Format                                   : UTF-8
Codec ID                                 : S_TEXT/UTF8
Codec ID/Info                            : UTF-8 Plain Text
Duration                                 : 29 min 39 s
Bit rate                                 : 233 b/s
Frame rate                               : 0.282 FPS
Count of elements                        : 501
Stream size                              : 50.7 KiB (0%)
Language                                 : Telugu
Default                                  : No
Forced                                   : No

Text #38
ID                                       : 40
Format                                   : UTF-8
Codec ID                                 : S_TEXT/UTF8
Codec ID/Info                            : UTF-8 Plain Text
Duration                                 : 29 min 39 s
Bit rate                                 : 197 b/s
Frame rate                               : 0.282 FPS
Count of elements                        : 501
Stream size                              : 42.8 KiB (0%)
Language                                 : Thai
Default                                  : No
Forced                                   : No

Text #39
ID                                       : 41
Format                                   : UTF-8
Codec ID                                 : S_TEXT/UTF8
Codec ID/Info                            : UTF-8 Plain Text
Duration                                 : 29 min 39 s
Bit rate                                 : 77 b/s
Frame rate                               : 0.268 FPS
Count of elements                        : 476
Stream size                              : 16.9 KiB (0%)
Language                                 : Turkish
Default                                  : No
Forced                                   : No

Text #40
ID                                       : 42
Format                                   : UTF-8
Codec ID                                 : S_TEXT/UTF8
Codec ID/Info                            : UTF-8 Plain Text
Duration                                 : 29 min 39 s
Bit rate                                 : 114 b/s
Frame rate                               : 0.282 FPS
Count of elements                        : 502
Stream size                              : 24.8 KiB (0%)
Language                                 : Ukrainian
Default                                  : No
Forced                                   : No

Text #41
ID                                       : 43
Format                                   : UTF-8
Codec ID                                 : S_TEXT/UTF8
Codec ID/Info                            : UTF-8 Plain Text
Duration                                 : 29 min 39 s
Bit rate                                 : 102 b/s
Frame rate                               : 0.282 FPS
Count of elements                        : 501
Stream size                              : 22.2 KiB (0%)
Language                                 : Vietnamese
Default                                  : No
Forced                                   : No

Text #42
ID                                       : 44
Format                                   : UTF-8
Codec ID                                 : S_TEXT/UTF8
Codec ID/Info                            : UTF-8 Plain Text
Duration                                 : 29 min 39 s
Bit rate                                 : 61 b/s
Frame rate                               : 0.282 FPS
Count of elements                        : 501
Stream size                              : 13.4 KiB (0%)
Title                                    : Cantonese (Traditional)
Language                                 : Cantonese (Hant)
Default                                  : No
Forced                                   : No

Menu
00:00:00.000                             : en:Chapter 1
00:01:53.416                             : en:Intro
00:02:29.833                             : en:Chapter 2



Download
File Container: MKV
Video/Audio Codec: H264 (HIGH) EAC3
Video Resolution: 1356x678

1 Response to "[RR/NF/CU] Loot S02E10 We Shouldnt Exist 720p ATVP WEB-DL DDP5 1 H 264-NTb (774MB)"
05/29/24
03:51:41
ReadyPlayerOne

Thank you!

Please Login to post a comment.
If you don't have any account, please Register.
  • Subscribe my Feeds
  • Facebook
Encoding Queue:  x264  x265

Latest Episodes

Popular Movies and TV Shows

  • Criminal Minds
  • The Chi
  • Bad Dinosaurs
  • Kim's Video
  • Birdemic 2: The Resurrection
  • Captivating the King
  • The Loud House
  • Power Book II: Ghost
  • I Saw the TV Glow
  • Species II
  • Ultraman: Rising
  • WWE NXT
  • The Boys
  • The Bold and the Beautiful
  • The Grab
  • Hannah Einbinder: Everything Must Go
  • Exhuma
  • Walker
  • Evil
  • WWE Raw
  • Brats
  • Mower Minions
  • Notas sobre un verano
  • The Daily Show
  • Survivor

Recent Comments

  • waanaabe: Does anyone have season 1 and 2 of "The Mire"? here is just season 3 of this polish series...
  • Rmed:

    Links are dead. Re-upload please?

  • mentalityx:

    Rad bloke.

  • mentalityx:

    Thx bloke.

  • Diggety247:

    BrokenHanded, Try using a DL manager.

  • BrokenHanded: clicknupload does not seem to work for past few days. keep getting an error saying the site is sendi...
  • Bud: Helps if you actually add these to the "Late Night with Seth Meyers" page too...
  • rambaldi70:

    Hy! Right now, my download speed : 1 Mb/s
    this is ok?
    Tx answer

  • Cinque_Persson: At 183 MB this had to be something completely different. In fact it's just the main actors commentin...

Archives