Sign Up   |   Sign In  
Mayor of KingstownBilly the KidTeen Mom: The Next ChapterR.I.P.D.Concrete UtopiaStars and RosesLove IslandLicence to KillKung Fu HustleLook to the LightOn Patrol: LiveDoctor ClimaxThe Bold and the BeautifulThe Loud HouseWelcome to WrexhamThere's Something About MaryVice News Presents: Mass Shooting AmericaEurekaWWE NXTCatfish: The TV ShowWalkerEnter the Clones of BruceImmaculateInside Out 2The Daily Show

Announcements

05/29

2024

No

Comments

Room 104 S03E01 The Plot 1080p AMZN WEB-DL DDP5 1 H 264-NTb
[RR/NF/CU]
Size: 947MB mkv H264 (HIGH) / EAC3  HD  1920x1080

Room 104
File Information
[img]http://lookpic.com/cdn/i2/t/0529202401151256-1.jpg[/img]
[img]http://lookpic.com/cdn/i2/t/0529202401151256-2.jpg[/img]
[img]http://lookpic.com/cdn/i2/t/0529202401151256-3.jpg[/img]

General
Unique ID                                : 286990494509812698575672798241944709397 (0xD7E85BD49F1331A3925246DD267B2915)
Complete name                            : Room 104 S03E01 The Plot 1080p AMZN WEB-DL DDP5 1 H 264-NTb.mkv
Format                                   : Matroska
Format version                           : Version 4
File size                                : 947 MiB
Duration                                 : 24 min 21 s
Overall bit rate                         : 5 437 kb/s
Frame rate                               : 23.976 FPS
Encoded date                             : 2019-09-14 14:07:55 UTC
Writing application                      : mkvmerge v32.0.0 ('Astral Progressions') 64-bit
Writing library                          : libebml v1.3.7 + libmatroska v1.5.0

Video
ID                                       : 1
Format                                   : AVC
Format/Info                              : Advanced Video Codec
Format profile                           : High@L4
Format settings                          : CABAC / 4 Ref Frames
Format settings, CABAC                   : Yes
Format settings, Reference frames        : 4 frames
Codec ID                                 : V_MPEG4/ISO/AVC
Duration                                 : 24 min 20 s
Bit rate mode                            : Constant
Bit rate                                 : 4 795 kb/s
Nominal bit rate                         : 10 000 kb/s
Width                                    : 1 920 pixels
Height                                   : 1 080 pixels
Display aspect ratio                     : 16:9
Frame rate mode                          : Constant
Frame rate                               : 23.976 (24000/1001) FPS
Color space                              : YUV
Chroma subsampling                       : 4:2:0
Bit depth                                : 8 bits
Scan type                                : Progressive
Bits/(Pixel*Frame)                       : 0.096
Stream size                              : 835 MiB (88%)
Default                                  : Yes
Forced                                   : No
Color range                              : Limited
Color primaries                          : BT.709
Transfer characteristics                 : BT.709
Matrix coefficients                      : BT.709

Audio
ID                                       : 2
Format                                   : E-AC-3
Format/Info                              : Enhanced AC-3
Commercial name                          : Dolby Digital Plus
Codec ID                                 : A_EAC3
Duration                                 : 24 min 20 s
Bit rate mode                            : Constant
Bit rate                                 : 640 kb/s
Channel(s)                               : 6 channels
Channel layout                           : L R C LFE Ls Rs
Sampling rate                            : 48.0 kHz
Frame rate                               : 31.250 FPS (1536 SPF)
Compression mode                         : Lossy
Delay relative to video                  : 26 ms
Stream size                              : 111 MiB (12%)
Language                                 : English
Service kind                             : Complete Main
Default                                  : Yes
Forced                                   : No

Text
ID                                       : 3
Format                                   : UTF-8
Codec ID                                 : S_TEXT/UTF8
Codec ID/Info                            : UTF-8 Plain Text
Duration                                 : 24 min 8 s
Bit rate                                 : 51 b/s
Frame rate                               : 0.230 FPS
Count of elements                        : 333
Stream size                              : 9.07 KiB (0%)
Title                                    : SDH
Language                                 : English
Default                                  : No
Forced                                   : No



Download
File Container: MKV
Video/Audio Codec: H264 (HIGH) EAC3
Video Resolution: 1920x1080
Please Login to post a comment.
If you don't have any account, please Register.
  • Subscribe my Feeds
  • Facebook
Encoding Queue:  x264  x265

Latest Episodes

Popular Movies and TV Shows

  • Mayor of Kingstown
  • Billy the Kid
  • Teen Mom: The Next Chapter
  • R.I.P.D.
  • Concrete Utopia
  • Stars and Roses
  • Love Island
  • Licence to Kill
  • Kung Fu Hustle
  • Look to the Light
  • On Patrol: Live
  • Doctor Climax
  • The Bold and the Beautiful
  • The Loud House
  • Welcome to Wrexham
  • There's Something About Mary
  • Vice News Presents: Mass Shooting America
  • Eureka
  • WWE NXT
  • Catfish: The TV Show
  • Walker
  • Enter the Clones of Bruce
  • Immaculate
  • Inside Out 2
  • The Daily Show

Recent Comments

Archives