Sign Up   |   Sign In  
Mayor of KingstownLook to the LightBilly the KidMy Sexual Abuse: The SitcomLove IslandKung Fu HustleLicence to KillThere's Something About MaryWonderful Precure!Doctor ClimaxThe Bold and the BeautifulThe Loud HouseBeat Bobby FlayVice News Presents: Mass Shooting AmericaEurekaInside Out 2WWE NXTCatfish: The TV ShowWalkerEnter the Clones of BruceImmaculateD-Day Hour by HourThe Daily ShowSurvivorWWE Smackdown!

Announcements

05/23

2024

No

Comments

Star Trek Discovery S05E09 Lagrange Point 720p AMZN WEB-DL DDP5 1 H 264-NTb
[RR/NF/CU]
Size: 1.1GB mkv H264 (HIGH) / EAC3  HD  1248x520

Star Trek: Discovery
File Information
[img]http://lookpic.com/cdn/i2/t/0523202415045414-1.jpg[/img]
[img]http://lookpic.com/cdn/i2/t/0523202415045414-2.jpg[/img]
[img]http://lookpic.com/cdn/i2/t/0523202415045414-3.jpg[/img]

General
Unique ID                                : 198620077120577584521989825459219999506 (0x956CD5DD5188F6ADE8EDE2382EF62B12)
Complete name                            : Star Trek Discovery S05E09 Lagrange Point 720p AMZN WEB-DL DDP5 1 H 264-NTb.mkv
Format                                   : Matroska
Format version                           : Version 4
File size                                : 1.11 GiB
Duration                                 : 46 min 56 s
Overall bit rate                         : 3 393 kb/s
Frame rate                               : 23.976 FPS
Writing application                      : mkvmerge v81.0 ('Milliontown') 64-bit
Writing library                          : libebml v1.4.4 + libmatroska v1.7.1

Video
ID                                       : 1
Format                                   : AVC
Format/Info                              : Advanced Video Codec
Format profile                           : High@L3.1
Format settings                          : CABAC / 4 Ref Frames
Format settings, CABAC                   : Yes
Format settings, Reference frames        : 4 frames
Codec ID                                 : V_MPEG4/ISO/AVC
Duration                                 : 46 min 56 s
Bit rate mode                            : Constant
Bit rate                                 : 2 751 kb/s
Nominal bit rate                         : 4 000 kb/s
Width                                    : 1 248 pixels
Height                                   : 520 pixels
Display aspect ratio                     : 2.40:1
Frame rate mode                          : Constant
Frame rate                               : 23.976 (24000/1001) FPS
Color space                              : YUV
Chroma subsampling                       : 4:2:0
Bit depth                                : 8 bits
Scan type                                : Progressive
Bits/(Pixel*Frame)                       : 0.177
Stream size                              : 924 MiB (81%)
Default                                  : Yes
Forced                                   : No
Color range                              : Limited
Color primaries                          : BT.709
Transfer characteristics                 : BT.709
Matrix coefficients                      : BT.709

Audio
ID                                       : 2
Format                                   : E-AC-3
Format/Info                              : Enhanced AC-3
Commercial name                          : Dolby Digital Plus
Codec ID                                 : A_EAC3
Duration                                 : 46 min 56 s
Bit rate mode                            : Constant
Bit rate                                 : 640 kb/s
Channel(s)                               : 6 channels
Channel layout                           : L R C LFE Ls Rs
Sampling rate                            : 48.0 kHz
Frame rate                               : 31.250 FPS (1536 SPF)
Compression mode                         : Lossy
Stream size                              : 215 MiB (19%)
Language                                 : English (US)
Service kind                             : Complete Main
Default                                  : Yes
Forced                                   : No

Text #1
ID                                       : 3
Format                                   : UTF-8
Codec ID                                 : S_TEXT/UTF8
Codec ID/Info                            : UTF-8 Plain Text
Duration                                 : 45 min 31 s
Bit rate                                 : 84 b/s
Frame rate                               : 0.314 FPS
Count of elements                        : 859
Stream size                              : 28.3 KiB (0%)
Language                                 : English (US)
Default                                  : No
Forced                                   : No

Text #2
ID                                       : 4
Format                                   : UTF-8
Codec ID                                 : S_TEXT/UTF8
Codec ID/Info                            : UTF-8 Plain Text
Duration                                 : 45 min 55 s
Bit rate                                 : 90 b/s
Frame rate                               : 0.328 FPS
Count of elements                        : 905
Stream size                              : 30.3 KiB (0%)
Title                                    : SDH
Language                                 : English (US)
Default                                  : No
Forced                                   : No



Download
File Container: MKV
Video/Audio Codec: H264 (HIGH) EAC3
Video Resolution: 1248x520
Please Login to post a comment.
If you don't have any account, please Register.
  • Subscribe my Feeds
  • Facebook
Encoding Queue:  x264  x265

Latest Episodes

Popular Movies and TV Shows

  • Mayor of Kingstown
  • Look to the Light
  • Billy the Kid
  • My Sexual Abuse: The Sitcom
  • Love Island
  • Kung Fu Hustle
  • Licence to Kill
  • There's Something About Mary
  • Wonderful Precure!
  • Doctor Climax
  • The Bold and the Beautiful
  • The Loud House
  • Beat Bobby Flay
  • Vice News Presents: Mass Shooting America
  • Eureka
  • Inside Out 2
  • WWE NXT
  • Catfish: The TV Show
  • Walker
  • Enter the Clones of Bruce
  • Immaculate
  • D-Day Hour by Hour
  • The Daily Show
  • Survivor
  • WWE Smackdown!

Recent Comments

Archives