Sign Up   |   Sign In  
Devil in the FleshThe SimpsonsGolden KamuyChillin' in Another World with Level 2 Super Cheat PowersBaby DriverBig City GreensTrackerThe EqualizerCSI: VegasChallengersTriple FrontierWild GuitarThe SympathizerKrapopolisBob's BurgersA Walk Among the TombstonesThe Baby DaddyPhil Tippett: Mad Dreams and MonstersYoung SheldonBeacon 23The Great NorthDawn of the Planet of the ApesExhumaEverything PuppiesS.W.A.T.

Announcements

04/22

2024

No

Comments

Station 19 S07E01 This Womans Work REPACK 720p DSNP WEB-DL DDP5 1 H 264-NTb
[RR/NF/CU]
Size: 1.1GB mkv H264 (HIGH) / EAC3  HD  1280x720

Station 19
File Information
[img]http://lookpic.com/cdn/i2/t/0422202401311389-1.jpg[/img]
[img]http://lookpic.com/cdn/i2/t/0422202401311389-2.jpg[/img]
[img]http://lookpic.com/cdn/i2/t/0422202401311389-3.jpg[/img]

General
Unique ID                                : 331520867059222053391412052084679691486 (0xF96898B49B9E2714069C87FDAF26CCDE)
Complete name                            : Station 19 S07E01 This Womans Work REPACK 720p DSNP WEB-DL DDP5 1 H 264-NTb.mkv
Format                                   : Matroska
Format version                           : Version 4
File size                                : 1.14 GiB
Duration                                 : 43 min 25 s
Overall bit rate mode                    : Variable
Overall bit rate                         : 3 769 kb/s
Frame rate                               : 23.976 FPS
Writing application                      : mkvmerge v81.0 ('Milliontown') 64-bit
Writing library                          : libebml v1.4.4 + libmatroska v1.7.1

Video
ID                                       : 1
Format                                   : AVC
Format/Info                              : Advanced Video Codec
Format profile                           : High@L3.1
Format settings                          : CABAC / 4 Ref Frames
Format settings, CABAC                   : Yes
Format settings, Reference frames        : 4 frames
Codec ID                                 : V_MPEG4/ISO/AVC
Duration                                 : 43 min 25 s
Bit rate mode                            : Variable
Bit rate                                 : 3 123 kb/s
Maximum bit rate                         : 6 375 kb/s
Width                                    : 1 280 pixels
Height                                   : 720 pixels
Display aspect ratio                     : 16:9
Frame rate mode                          : Constant
Frame rate                               : 23.976 (24000/1001) FPS
Color space                              : YUV
Chroma subsampling                       : 4:2:0
Bit depth                                : 8 bits
Scan type                                : Progressive
Bits/(Pixel*Frame)                       : 0.141
Time code of first frame                 : 00:00:00:0000000000
Stream size                              : 970 MiB (83%)
Default                                  : Yes
Forced                                   : No
Color range                              : Limited
Color primaries                          : BT.709
Transfer characteristics                 : BT.709
Matrix coefficients                      : BT.709

Audio
ID                                       : 2
Format                                   : E-AC-3
Format/Info                              : Enhanced AC-3
Commercial name                          : Dolby Digital Plus
Codec ID                                 : A_EAC3
Duration                                 : 43 min 25 s
Bit rate mode                            : Constant
Bit rate                                 : 640 kb/s
Channel(s)                               : 6 channels
Channel layout                           : L R C LFE Ls Rs
Sampling rate                            : 48.0 kHz
Frame rate                               : 31.250 FPS (1536 SPF)
Compression mode                         : Lossy
Stream size                              : 199 MiB (17%)
Language                                 : English
Service kind                             : Complete Main
Default                                  : Yes
Forced                                   : No

Text #1
ID                                       : 3
Format                                   : UTF-8
Codec ID                                 : S_TEXT/UTF8
Codec ID/Info                            : UTF-8 Plain Text
Duration                                 : 42 min 38 s
Bit rate                                 : 95 b/s
Frame rate                               : 0.310 FPS
Count of elements                        : 792
Stream size                              : 29.9 KiB (0%)
Language                                 : English
Default                                  : No
Forced                                   : No

Text #2
ID                                       : 4
Format                                   : UTF-8
Codec ID                                 : S_TEXT/UTF8
Codec ID/Info                            : UTF-8 Plain Text
Duration                                 : 42 min 38 s
Bit rate                                 : 107 b/s
Frame rate                               : 0.331 FPS
Count of elements                        : 848
Stream size                              : 33.5 KiB (0%)
Title                                    : SDH
Language                                 : English
Default                                  : No
Forced                                   : No

Text #3
ID                                       : 5
Format                                   : UTF-8
Codec ID                                 : S_TEXT/UTF8
Codec ID/Info                            : UTF-8 Plain Text
Duration                                 : 43 min 16 s
Bit rate                                 : 73 b/s
Frame rate                               : 0.227 FPS
Count of elements                        : 589
Stream size                              : 23.2 KiB (0%)
Language                                 : Czech
Default                                  : No
Forced                                   : No

Text #4
ID                                       : 6
Format                                   : UTF-8
Codec ID                                 : S_TEXT/UTF8
Codec ID/Info                            : UTF-8 Plain Text
Duration                                 : 43 min 16 s
Bit rate                                 : 77 b/s
Frame rate                               : 0.246 FPS
Count of elements                        : 639
Stream size                              : 24.5 KiB (0%)
Language                                 : Danish
Default                                  : No
Forced                                   : No

Text #5
ID                                       : 7
Format                                   : UTF-8
Codec ID                                 : S_TEXT/UTF8
Codec ID/Info                            : UTF-8 Plain Text
Duration                                 : 43 min 16 s
Bit rate                                 : 82 b/s
Frame rate                               : 0.275 FPS
Count of elements                        : 715
Stream size                              : 26.0 KiB (0%)
Language                                 : German
Default                                  : No
Forced                                   : No

Text #6
ID                                       : 8
Format                                   : UTF-8
Codec ID                                 : S_TEXT/UTF8
Codec ID/Info                            : UTF-8 Plain Text
Duration                                 : 43 min 16 s
Bit rate                                 : 127 b/s
Frame rate                               : 0.255 FPS
Count of elements                        : 663
Stream size                              : 40.4 KiB (0%)
Language                                 : Greek
Default                                  : No
Forced                                   : No

Text #7
ID                                       : 9
Format                                   : UTF-8
Codec ID                                 : S_TEXT/UTF8
Codec ID/Info                            : UTF-8 Plain Text
Duration                                 : 43 min 16 s
Bit rate                                 : 75 b/s
Frame rate                               : 0.241 FPS
Count of elements                        : 626
Stream size                              : 24.1 KiB (0%)
Title                                    : Spanish (Latin America)
Language                                 : Spanish (Latin America)
Default                                  : No
Forced                                   : No

Text #8
ID                                       : 10
Format                                   : UTF-8
Codec ID                                 : S_TEXT/UTF8
Codec ID/Info                            : UTF-8 Plain Text
Duration                                 : 43 min 16 s
Bit rate                                 : 76 b/s
Frame rate                               : 0.255 FPS
Count of elements                        : 661
Stream size                              : 24.1 KiB (0%)
Title                                    : Spanish (Spain)
Language                                 : Spanish (ES)
Default                                  : No
Forced                                   : No

Text #9
ID                                       : 11
Format                                   : UTF-8
Codec ID                                 : S_TEXT/UTF8
Codec ID/Info                            : UTF-8 Plain Text
Duration                                 : 43 min 16 s
Bit rate                                 : 76 b/s
Frame rate                               : 0.268 FPS
Count of elements                        : 695
Stream size                              : 24.1 KiB (0%)
Language                                 : Finnish
Default                                  : No
Forced                                   : No

Text #10
ID                                       : 12
Format                                   : UTF-8
Codec ID                                 : S_TEXT/UTF8
Codec ID/Info                            : UTF-8 Plain Text
Duration                                 : 43 min 16 s
Bit rate                                 : 71 b/s
Frame rate                               : 0.263 FPS
Count of elements                        : 684
Stream size                              : 22.6 KiB (0%)
Language                                 : French (FR)
Default                                  : No
Forced                                   : No

Text #11
ID                                       : 13
Format                                   : UTF-8
Codec ID                                 : S_TEXT/UTF8
Codec ID/Info                            : UTF-8 Plain Text
Duration                                 : 43 min 16 s
Bit rate                                 : 75 b/s
Frame rate                               : 0.216 FPS
Count of elements                        : 560
Stream size                              : 23.9 KiB (0%)
Language                                 : Hungarian
Default                                  : No
Forced                                   : No

Text #12
ID                                       : 14
Format                                   : UTF-8
Codec ID                                 : S_TEXT/UTF8
Codec ID/Info                            : UTF-8 Plain Text
Duration                                 : 43 min 16 s
Bit rate                                 : 72 b/s
Frame rate                               : 0.256 FPS
Count of elements                        : 664
Stream size                              : 23.0 KiB (0%)
Language                                 : Italian
Default                                  : No
Forced                                   : No

Text #13
ID                                       : 15
Format                                   : UTF-8
Codec ID                                 : S_TEXT/UTF8
Codec ID/Info                            : UTF-8 Plain Text
Duration                                 : 43 min 15 s
Bit rate                                 : 60 b/s
Frame rate                               : 0.250 FPS
Count of elements                        : 649
Stream size                              : 19.1 KiB (0%)
Language                                 : Japanese
Default                                  : No
Forced                                   : No

Text #14
ID                                       : 16
Format                                   : UTF-8
Codec ID                                 : S_TEXT/UTF8
Codec ID/Info                            : UTF-8 Plain Text
Duration                                 : 43 min 16 s
Bit rate                                 : 93 b/s
Frame rate                               : 0.280 FPS
Count of elements                        : 727
Stream size                              : 29.6 KiB (0%)
Language                                 : Korean
Default                                  : No
Forced                                   : No

Text #15
ID                                       : 17
Format                                   : UTF-8
Codec ID                                 : S_TEXT/UTF8
Codec ID/Info                            : UTF-8 Plain Text
Duration                                 : 43 min 16 s
Bit rate                                 : 66 b/s
Frame rate                               : 0.193 FPS
Count of elements                        : 502
Stream size                              : 21.0 KiB (0%)
Language                                 : Dutch
Default                                  : No
Forced                                   : No

Text #16
ID                                       : 18
Format                                   : UTF-8
Codec ID                                 : S_TEXT/UTF8
Codec ID/Info                            : UTF-8 Plain Text
Duration                                 : 43 min 16 s
Bit rate                                 : 69 b/s
Frame rate                               : 0.184 FPS
Count of elements                        : 477
Stream size                              : 22.1 KiB (0%)
Language                                 : Norwegian
Default                                  : No
Forced                                   : No

Text #17
ID                                       : 19
Format                                   : UTF-8
Codec ID                                 : S_TEXT/UTF8
Codec ID/Info                            : UTF-8 Plain Text
Duration                                 : 43 min 16 s
Bit rate                                 : 73 b/s
Frame rate                               : 0.273 FPS
Count of elements                        : 710
Stream size                              : 23.3 KiB (0%)
Language                                 : Polish
Default                                  : No
Forced                                   : No

Text #18
ID                                       : 20
Format                                   : UTF-8
Codec ID                                 : S_TEXT/UTF8
Codec ID/Info                            : UTF-8 Plain Text
Duration                                 : 43 min 16 s
Bit rate                                 : 72 b/s
Frame rate                               : 0.271 FPS
Count of elements                        : 703
Stream size                              : 23.0 KiB (0%)
Title                                    : Portuguese (Brazil)
Language                                 : Portuguese (BR)
Default                                  : No
Forced                                   : No

Text #19
ID                                       : 21
Format                                   : UTF-8
Codec ID                                 : S_TEXT/UTF8
Codec ID/Info                            : UTF-8 Plain Text
Duration                                 : 43 min 16 s
Bit rate                                 : 77 b/s
Frame rate                               : 0.279 FPS
Count of elements                        : 724
Stream size                              : 24.5 KiB (0%)
Title                                    : Portuguese (Portugal)
Language                                 : Portuguese (PT)
Default                                  : No
Forced                                   : No

Text #20
ID                                       : 22
Format                                   : UTF-8
Codec ID                                 : S_TEXT/UTF8
Codec ID/Info                            : UTF-8 Plain Text
Duration                                 : 43 min 16 s
Bit rate                                 : 74 b/s
Frame rate                               : 0.208 FPS
Count of elements                        : 541
Stream size                              : 23.6 KiB (0%)
Language                                 : Romanian
Default                                  : No
Forced                                   : No

Text #21
ID                                       : 23
Format                                   : UTF-8
Codec ID                                 : S_TEXT/UTF8
Codec ID/Info                            : UTF-8 Plain Text
Duration                                 : 43 min 16 s
Bit rate                                 : 77 b/s
Frame rate                               : 0.275 FPS
Count of elements                        : 714
Stream size                              : 24.7 KiB (0%)
Language                                 : Slovak
Default                                  : No
Forced                                   : No

Text #22
ID                                       : 24
Format                                   : UTF-8
Codec ID                                 : S_TEXT/UTF8
Codec ID/Info                            : UTF-8 Plain Text
Duration                                 : 43 min 16 s
Bit rate                                 : 68 b/s
Frame rate                               : 0.213 FPS
Count of elements                        : 553
Stream size                              : 21.9 KiB (0%)
Language                                 : Swedish
Default                                  : No
Forced                                   : No

Text #23
ID                                       : 25
Format                                   : UTF-8
Codec ID                                 : S_TEXT/UTF8
Codec ID/Info                            : UTF-8 Plain Text
Duration                                 : 43 min 16 s
Bit rate                                 : 80 b/s
Frame rate                               : 0.281 FPS
Count of elements                        : 730
Stream size                              : 25.4 KiB (0%)
Language                                 : Turkish
Default                                  : No
Forced                                   : No

Text #24
ID                                       : 26
Format                                   : UTF-8
Codec ID                                 : S_TEXT/UTF8
Codec ID/Info                            : UTF-8 Plain Text
Duration                                 : 43 min 16 s
Bit rate                                 : 75 b/s
Frame rate                               : 0.281 FPS
Count of elements                        : 730
Stream size                              : 23.8 KiB (0%)
Language                                 : Chinese (Traditional)
Default                                  : No
Forced                                   : No



Download
File Container: MKV
Video/Audio Codec: H264 (HIGH) EAC3
Video Resolution: 1280x720
Please Login to post a comment.
If you don't have any account, please Register.
  • Subscribe my Feeds
  • Facebook
Encoding Queue:  x264  x265

Latest Episodes

Popular Movies and TV Shows

  • Devil in the Flesh
  • The Simpsons
  • Golden Kamuy
  • Chillin' in Another World with Level 2 Super Cheat Powers
  • Baby Driver
  • Big City Greens
  • Tracker
  • The Equalizer
  • CSI: Vegas
  • Challengers
  • Triple Frontier
  • Wild Guitar
  • The Sympathizer
  • Krapopolis
  • Bob's Burgers
  • A Walk Among the Tombstones
  • The Baby Daddy
  • Phil Tippett: Mad Dreams and Monsters
  • Young Sheldon
  • Beacon 23
  • The Great North
  • Dawn of the Planet of the Apes
  • Exhuma
  • Everything Puppies
  • S.W.A.T.

Recent Comments

  • Bud: Is the search engine down for everyone, or just me? It just says 'You're forbidden!' whenever I lo...
  • 23d1:

    not episode 4 it is episode 3

  • 23d1:

    not episode 4 it is episode 3

  • 23d1:

    not episode 4 it is episode 3

  • 23d1:

    not episode 4 it is episode 3

  • aaroz88:

    Trimas!!

  • mptoo: I don't often ask this, infact this would be the first time, but I don't suppose there is any chance...
  • Cinque_Persson:

    btw:
    quote /quote
    is broken

  • gabrielsyme:

    Sorry but where is the clicknupload link?

  • mike1204:

    Is this episode doomed??? The RMX avi version is only 12 minutes long!!!

  • waanaabe:

    Could PUSHING DAISES kindly be upoaded to CU? THANKS!

Archives