Sign Up   |   Sign In  
MILF of NorwayHannah Einbinder: Everything Must GoI Saw the TV GlowThe ChiSistasBratsThe Bold and the BeautifulThe ChosenThe Big CigarThe EgyptianNotas sobre un veranoInside Out 2WWE NXTThe BoysWalkerAssimilateMower MinionsMiddle of the NightEvilBridgertonCriminal MindsIn the Line of FireThe Artifice GirlLamp LifeThe Daily Show

Announcements

05/20

2024

No

Comments

The Equalizer 2021 S04E10 Shattered 1080p AMZN WEB-DL DDP5 1 H 264-NTb
[RR/NF]
Size: 5.4GB 2 CDs mkv H264 (HIGH) / EAC3  HD  1920x1080

The Equalizer
File Information
[img]http://lookpic.com/cdn/i2/t/0520202408281169-1.jpg[/img]
[img]http://lookpic.com/cdn/i2/t/0520202408281169-2.jpg[/img]
[img]http://lookpic.com/cdn/i2/t/0520202408281169-3.jpg[/img]

General
Unique ID                                : 234963140057765269674428597814472709816 (0xB0C44135C0AD1C32AD51345D6B8F96B8)
Complete name                            : The Equalizer 2021 S04E10 Shattered 1080p AMZN WEB-DL DDP5 1 H 264-NTb.mkv
Format                                   : Matroska
Format version                           : Version 4
File size                                : 2.71 GiB
Duration                                 : 43 min 29 s
Overall bit rate                         : 8 907 kb/s
Frame rate                               : 23.976 FPS
Writing application                      : mkvmerge v84.0 ('Sleeper') 64-bit
Writing library                          : libebml v1.4.5 + libmatroska v1.7.1

Video
ID                                       : 1
Format                                   : AVC
Format/Info                              : Advanced Video Codec
Format profile                           : High@L4
Format settings                          : CABAC / 4 Ref Frames
Format settings, CABAC                   : Yes
Format settings, Reference frames        : 4 frames
Codec ID                                 : V_MPEG4/ISO/AVC
Duration                                 : 43 min 29 s
Bit rate mode                            : Constant
Bit rate                                 : 8 265 kb/s
Nominal bit rate                         : 10 000 kb/s
Width                                    : 1 920 pixels
Height                                   : 1 080 pixels
Display aspect ratio                     : 16:9
Frame rate mode                          : Constant
Frame rate                               : 23.976 (24000/1001) FPS
Color space                              : YUV
Chroma subsampling                       : 4:2:0
Bit depth                                : 8 bits
Scan type                                : Progressive
Bits/(Pixel*Frame)                       : 0.166
Stream size                              : 2.51 GiB (93%)
Default                                  : Yes
Forced                                   : No
Color range                              : Limited
Color primaries                          : BT.709
Transfer characteristics                 : BT.709
Matrix coefficients                      : BT.709

Audio
ID                                       : 2
Format                                   : E-AC-3
Format/Info                              : Enhanced AC-3
Commercial name                          : Dolby Digital Plus
Codec ID                                 : A_EAC3
Duration                                 : 43 min 29 s
Bit rate mode                            : Constant
Bit rate                                 : 640 kb/s
Channel(s)                               : 6 channels
Channel layout                           : L R C LFE Ls Rs
Sampling rate                            : 48.0 kHz
Frame rate                               : 31.250 FPS (1536 SPF)
Compression mode                         : Lossy
Stream size                              : 199 MiB (7%)
Language                                 : English (US)
Service kind                             : Complete Main
Default                                  : Yes
Forced                                   : No

Text #1
ID                                       : 3
Format                                   : UTF-8
Codec ID                                 : S_TEXT/UTF8
Codec ID/Info                            : UTF-8 Plain Text
Duration                                 : 42 min 53 s
Bit rate                                 : 75 b/s
Frame rate                               : 0.313 FPS
Count of elements                        : 806
Stream size                              : 23.8 KiB (0%)
Language                                 : English (US)
Default                                  : No
Forced                                   : No

Text #2
ID                                       : 4
Format                                   : UTF-8
Codec ID                                 : S_TEXT/UTF8
Codec ID/Info                            : UTF-8 Plain Text
Duration                                 : 42 min 59 s
Bit rate                                 : 79 b/s
Frame rate                               : 0.334 FPS
Count of elements                        : 862
Stream size                              : 25.1 KiB (0%)
Title                                    : SDH
Language                                 : English (US)
Default                                  : No
Forced                                   : No



Download
File Container: MKV
Video/Audio Codec: H264 (HIGH) EAC3
Video Resolution: 1920x1080
Please Login to post a comment.
If you don't have any account, please Register.
  • Subscribe my Feeds
  • Facebook
Encoding Queue:  x264  x265

Latest Episodes

Popular Movies and TV Shows

  • MILF of Norway
  • Hannah Einbinder: Everything Must Go
  • I Saw the TV Glow
  • The Chi
  • Sistas
  • Brats
  • The Bold and the Beautiful
  • The Chosen
  • The Big Cigar
  • The Egyptian
  • Notas sobre un verano
  • Inside Out 2
  • WWE NXT
  • The Boys
  • Walker
  • Assimilate
  • Mower Minions
  • Middle of the Night
  • Evil
  • Bridgerton
  • Criminal Minds
  • In the Line of Fire
  • The Artifice Girl
  • Lamp Life
  • The Daily Show

Recent Comments

Archives