Sign Up   |   Sign In  
The UntouchablesBeyond ParadiseMan on FireGoggleboxGuardians of the Galaxy Vol. 3Doom PatrolYoung SheldonLaw & Order: Organized CrimeLaw & Order Toronto: Criminal IntentThe Greatest HitsFour Souls of CoyoteUntitled Woody WoodpeckerFalloutDamagedLaRoy, TexasSugarA Gentleman in MoscowParachuteElsbethFranklinGhosts10 LivesA Model MurderKung Fu Panda 4Star Trek: Discovery

Announcements

03/28

2024

No

Comments

Tokyo Vice S02E09 Consequences 1080p AMZN WEB-DL DDP5 1 H 264-NTb
[RR/NF]
Size: 3.5GB mkv H264 (HIGH) / EAC3  HD  1920x960

Tokyo Vice
File Information
[img]http://lookpic.com/cdn/i2/t/0328202411023000-1.jpg[/img]
[img]http://lookpic.com/cdn/i2/t/0328202411023000-2.jpg[/img]
[img]http://lookpic.com/cdn/i2/t/0328202411023000-3.jpg[/img]

General
Unique ID                                : 34784000948563178084111193919680727917 (0x1A2B27A79B9D95D88D9B4FB3CED0CB6D)
Complete name                            : Tokyo.Vice.S02E09.Consequences.1080p.AMZN.WEB-DL.DDP5.1.H.264-NTb.mkv
Format                                   : Matroska
Format version                           : Version 4
File size                                : 3.47 GiB
Duration                                 : 50 min 49 s
Overall bit rate                         : 9 773 kb/s
Frame rate                               : 23.976 FPS
Writing application                      : mkvmerge v81.0 ('Milliontown') 64-bit
Writing library                          : libebml v1.4.4 + libmatroska v1.7.1

Video
ID                                       : 1
Format                                   : AVC
Format/Info                              : Advanced Video Codec
Format profile                           : High@L4
Format settings                          : CABAC / 4 Ref Frames
Format settings, CABAC                   : Yes
Format settings, Reference frames        : 4 frames
Codec ID                                 : V_MPEG4/ISO/AVC
Duration                                 : 50 min 49 s
Bit rate mode                            : Constant
Bit rate                                 : 9 129 kb/s
Nominal bit rate                         : 10 000 kb/s
Width                                    : 1 920 pixels
Height                                   : 960 pixels
Display aspect ratio                     : 2.000
Frame rate mode                          : Constant
Frame rate                               : 23.976 (24000/1001) FPS
Color space                              : YUV
Chroma subsampling                       : 4:2:0
Bit depth                                : 8 bits
Scan type                                : Progressive
Bits/(Pixel*Frame)                       : 0.207
Stream size                              : 3.24 GiB (93%)
Default                                  : Yes
Forced                                   : No
Color range                              : Limited
Color primaries                          : BT.709
Transfer characteristics                 : BT.709
Matrix coefficients                      : BT.709

Audio
ID                                       : 2
Format                                   : E-AC-3 JOC
Format/Info                              : Enhanced AC-3 with Joint Object Coding
Commercial name                          : Dolby Digital Plus with Dolby Atmos
Codec ID                                 : A_EAC3
Duration                                 : 50 min 49 s
Bit rate mode                            : Constant
Bit rate                                 : 640 kb/s
Channel(s)                               : 6 channels
Channel layout                           : L R C LFE Ls Rs
Sampling rate                            : 48.0 kHz
Frame rate                               : 31.250 FPS (1536 SPF)
Compression mode                         : Lossy
Stream size                              : 233 MiB (7%)
Language                                 : English
Service kind                             : Complete Main
Default                                  : Yes
Forced                                   : No
Complexity index                         : 16
Number of dynamic objects                : 15
Bed channel count                        : 1 channel
Bed channel configuration                : LFE

Text #1
ID                                       : 3
Format                                   : UTF-8
Codec ID                                 : S_TEXT/UTF8
Codec ID/Info                            : UTF-8 Plain Text
Duration                                 : 43 min 28 s
Bit rate                                 : 22 b/s
Frame rate                               : 0.085 FPS
Count of elements                        : 222
Stream size                              : 7.18 KiB (0%)
Language                                 : English (US)
Default                                  : No
Forced                                   : No

Text #2
ID                                       : 4
Format                                   : UTF-8
Codec ID                                 : S_TEXT/UTF8
Codec ID/Info                            : UTF-8 Plain Text
Duration                                 : 49 min 44 s
Bit rate                                 : 25 b/s
Frame rate                               : 0.125 FPS
Count of elements                        : 373
Stream size                              : 9.21 KiB (0%)
Title                                    : SDH
Language                                 : English (US)
Default                                  : No
Forced                                   : No

Text #3
ID                                       : 5
Format                                   : UTF-8
Codec ID                                 : S_TEXT/UTF8
Codec ID/Info                            : UTF-8 Plain Text
Duration                                 : 49 min 30 s
Bit rate                                 : 89 b/s
Frame rate                               : 0.177 FPS
Count of elements                        : 526
Stream size                              : 32.4 KiB (0%)
Language                                 : Bulgarian (BG)
Default                                  : No
Forced                                   : No

Text #4
ID                                       : 6
Format                                   : UTF-8
Codec ID                                 : S_TEXT/UTF8
Codec ID/Info                            : UTF-8 Plain Text
Duration                                 : 49 min 22 s
Bit rate                                 : 49 b/s
Frame rate                               : 0.192 FPS
Count of elements                        : 570
Stream size                              : 18.0 KiB (0%)
Language                                 : Czech (CZ)
Default                                  : No
Forced                                   : No

Text #5
ID                                       : 7
Format                                   : UTF-8
Codec ID                                 : S_TEXT/UTF8
Codec ID/Info                            : UTF-8 Plain Text
Duration                                 : 48 min 28 s
Bit rate                                 : 51 b/s
Frame rate                               : 0.157 FPS
Count of elements                        : 456
Stream size                              : 18.3 KiB (0%)
Language                                 : Danish (DK)
Default                                  : No
Forced                                   : No

Text #6
ID                                       : 8
Format                                   : UTF-8
Codec ID                                 : S_TEXT/UTF8
Codec ID/Info                            : UTF-8 Plain Text
Duration                                 : 49 min 16 s
Bit rate                                 : 51 b/s
Frame rate                               : 0.213 FPS
Count of elements                        : 629
Stream size                              : 18.6 KiB (0%)
Title                                    : Spanish (Latin America)
Language                                 : Spanish (Latin America)
Default                                  : No
Forced                                   : No

Text #7
ID                                       : 9
Format                                   : UTF-8
Codec ID                                 : S_TEXT/UTF8
Codec ID/Info                            : UTF-8 Plain Text
Duration                                 : 48 min 15 s
Bit rate                                 : 53 b/s
Frame rate                               : 0.195 FPS
Count of elements                        : 564
Stream size                              : 19.0 KiB (0%)
Title                                    : Spanish (Spain)
Language                                 : Spanish (ES)
Default                                  : No
Forced                                   : No

Text #8
ID                                       : 10
Format                                   : UTF-8
Codec ID                                 : S_TEXT/UTF8
Codec ID/Info                            : UTF-8 Plain Text
Duration                                 : 48 min 28 s
Bit rate                                 : 47 b/s
Frame rate                               : 0.170 FPS
Count of elements                        : 494
Stream size                              : 16.9 KiB (0%)
Language                                 : Estonian (EE)
Default                                  : No
Forced                                   : No

Text #9
ID                                       : 11
Format                                   : UTF-8
Codec ID                                 : S_TEXT/UTF8
Codec ID/Info                            : UTF-8 Plain Text
Duration                                 : 48 min 28 s
Bit rate                                 : 49 b/s
Frame rate                               : 0.166 FPS
Count of elements                        : 483
Stream size                              : 17.7 KiB (0%)
Language                                 : Finnish (FI)
Default                                  : No
Forced                                   : No

Text #10
ID                                       : 12
Format                                   : UTF-8
Codec ID                                 : S_TEXT/UTF8
Codec ID/Info                            : UTF-8 Plain Text
Duration                                 : 48 min 49 s
Bit rate                                 : 46 b/s
Frame rate                               : 0.187 FPS
Count of elements                        : 549
Stream size                              : 16.6 KiB (0%)
Language                                 : Croatian (HR)
Default                                  : No
Forced                                   : No

Text #11
ID                                       : 13
Format                                   : UTF-8
Codec ID                                 : S_TEXT/UTF8
Codec ID/Info                            : UTF-8 Plain Text
Duration                                 : 49 min 30 s
Bit rate                                 : 51 b/s
Frame rate                               : 0.188 FPS
Count of elements                        : 558
Stream size                              : 18.7 KiB (0%)
Language                                 : Hungarian (HU)
Default                                  : No
Forced                                   : No

Text #12
ID                                       : 14
Format                                   : UTF-8
Codec ID                                 : S_TEXT/UTF8
Codec ID/Info                            : UTF-8 Plain Text
Duration                                 : 48 min 28 s
Bit rate                                 : 47 b/s
Frame rate                               : 0.171 FPS
Count of elements                        : 496
Stream size                              : 16.8 KiB (0%)
Language                                 : Lithuanian (LT)
Default                                  : No
Forced                                   : No

Text #13
ID                                       : 15
Format                                   : UTF-8
Codec ID                                 : S_TEXT/UTF8
Codec ID/Info                            : UTF-8 Plain Text
Duration                                 : 48 min 28 s
Bit rate                                 : 48 b/s
Frame rate                               : 0.169 FPS
Count of elements                        : 493
Stream size                              : 17.2 KiB (0%)
Language                                 : Latvian (LV)
Default                                  : No
Forced                                   : No

Text #14
ID                                       : 16
Format                                   : UTF-8
Codec ID                                 : S_TEXT/UTF8
Codec ID/Info                            : UTF-8 Plain Text
Duration                                 : 48 min 49 s
Bit rate                                 : 83 b/s
Frame rate                               : 0.187 FPS
Count of elements                        : 549
Stream size                              : 29.7 KiB (0%)
Language                                 : Macedonian (MK)
Default                                  : No
Forced                                   : No

Text #15
ID                                       : 17
Format                                   : UTF-8
Codec ID                                 : S_TEXT/UTF8
Codec ID/Info                            : UTF-8 Plain Text
Duration                                 : 48 min 26 s
Bit rate                                 : 49 b/s
Frame rate                               : 0.165 FPS
Count of elements                        : 480
Stream size                              : 17.6 KiB (0%)
Language                                 : Dutch (NL)
Default                                  : No
Forced                                   : No

Text #16
ID                                       : 18
Format                                   : UTF-8
Codec ID                                 : S_TEXT/UTF8
Codec ID/Info                            : UTF-8 Plain Text
Duration                                 : 48 min 28 s
Bit rate                                 : 48 b/s
Frame rate                               : 0.154 FPS
Count of elements                        : 447
Stream size                              : 17.3 KiB (0%)
Language                                 : Norwegian (NO)
Default                                  : No
Forced                                   : No

Text #17
ID                                       : 19
Format                                   : UTF-8
Codec ID                                 : S_TEXT/UTF8
Codec ID/Info                            : UTF-8 Plain Text
Duration                                 : 50 min 24 s
Bit rate                                 : 41 b/s
Frame rate                               : 0.161 FPS
Count of elements                        : 488
Stream size                              : 15.5 KiB (0%)
Language                                 : Polish (PL)
Default                                  : No
Forced                                   : No

Text #18
ID                                       : 20
Format                                   : UTF-8
Codec ID                                 : S_TEXT/UTF8
Codec ID/Info                            : UTF-8 Plain Text
Duration                                 : 49 min 16 s
Bit rate                                 : 50 b/s
Frame rate                               : 0.213 FPS
Count of elements                        : 629
Stream size                              : 18.4 KiB (0%)
Title                                    : Portuguese (Brazil)
Language                                 : Portuguese (BR)
Default                                  : No
Forced                                   : No

Text #19
ID                                       : 21
Format                                   : UTF-8
Codec ID                                 : S_TEXT/UTF8
Codec ID/Info                            : UTF-8 Plain Text
Duration                                 : 48 min 28 s
Bit rate                                 : 52 b/s
Frame rate                               : 0.172 FPS
Count of elements                        : 500
Stream size                              : 18.6 KiB (0%)
Title                                    : Portuguese (Portugal)
Language                                 : Portuguese (PT)
Default                                  : No
Forced                                   : No

Text #20
ID                                       : 22
Format                                   : UTF-8
Codec ID                                 : S_TEXT/UTF8
Codec ID/Info                            : UTF-8 Plain Text
Duration                                 : 49 min 22 s
Bit rate                                 : 50 b/s
Frame rate                               : 0.182 FPS
Count of elements                        : 538
Stream size                              : 18.2 KiB (0%)
Language                                 : Romanian (RO)
Default                                  : No
Forced                                   : No

Text #21
ID                                       : 23
Format                                   : UTF-8
Codec ID                                 : S_TEXT/UTF8
Codec ID/Info                            : UTF-8 Plain Text
Duration                                 : 48 min 35 s
Bit rate                                 : 49 b/s
Frame rate                               : 0.199 FPS
Count of elements                        : 579
Stream size                              : 17.8 KiB (0%)
Language                                 : Slovak (SK)
Default                                  : No
Forced                                   : No

Text #22
ID                                       : 24
Format                                   : UTF-8
Codec ID                                 : S_TEXT/UTF8
Codec ID/Info                            : UTF-8 Plain Text
Duration                                 : 48 min 49 s
Bit rate                                 : 44 b/s
Frame rate                               : 0.187 FPS
Count of elements                        : 549
Stream size                              : 16.1 KiB (0%)
Language                                 : Slovenian (SI)
Default                                  : No
Forced                                   : No

Text #23
ID                                       : 25
Format                                   : UTF-8
Codec ID                                 : S_TEXT/UTF8
Codec ID/Info                            : UTF-8 Plain Text
Duration                                 : 48 min 49 s
Bit rate                                 : 46 b/s
Frame rate                               : 0.187 FPS
Count of elements                        : 549
Stream size                              : 16.7 KiB (0%)
Language                                 : Serbian-Latn-RS
Default                                  : No
Forced                                   : No

Text #24
ID                                       : 26
Format                                   : UTF-8
Codec ID                                 : S_TEXT/UTF8
Codec ID/Info                            : UTF-8 Plain Text
Duration                                 : 48 min 28 s
Bit rate                                 : 50 b/s
Frame rate                               : 0.154 FPS
Count of elements                        : 449
Stream size                              : 18.0 KiB (0%)
Language                                 : Swedish (SE)
Default                                  : No
Forced                                   : No

Menu
00:00:00.000                             : en:Intro
00:01:18.073                             : en:Chapter 1
00:09:53.211                             : en:Chapter 2
00:18:59.549                             : en:Chapter 3
00:29:21.712                             : en:Chapter 4
00:39:47.337                             : en:Chapter 5
00:49:49.939                             : en:Credits



Download
File Container: MKV
Video/Audio Codec: H264 (HIGH) EAC3
Video Resolution: 1920x960
Please Login to post a comment.
If you don't have any account, please Register.
  • Subscribe my Feeds
  • Facebook
Encoding Queue:  x264  x265

Latest Episodes

Popular Movies and TV Shows

  • The Untouchables
  • Beyond Paradise
  • Man on Fire
  • Gogglebox
  • Guardians of the Galaxy Vol. 3
  • Doom Patrol
  • Young Sheldon
  • Law & Order: Organized Crime
  • Law & Order Toronto: Criminal Intent
  • The Greatest Hits
  • Four Souls of Coyote
  • Untitled Woody Woodpecker
  • Fallout
  • Damaged
  • LaRoy, Texas
  • Sugar
  • A Gentleman in Moscow
  • Parachute
  • Elsbeth
  • Franklin
  • Ghosts
  • 10 Lives
  • A Model Murder
  • Kung Fu Panda 4
  • Star Trek: Discovery

Recent Comments

  • theahtisham:

    Kindly upload Ep. 3 and 4 as well.

  • Kudzu: Update on sound issue, File's codec info says stereo but is only a the left channel If I switch i...
  • Admin:

    kang
    Getting error while encoding, sorry

  • rambaldi70:

    sorry this release ok.
    but descripton is bad
    (Duration: 2h56m7s)

  • mentalityx:

    Thx bloke.

  • Cinemoan: I've been getting the same error message as budo here - There's no rhyme or reason to when it pops u...

Archives