Sign Up   |   Sign In  
The Fall GuyBoy Kills WorldThe VeilSeize Them!Oblivion BatteryTouken Ranbu Kai: Kyoden Moyuru HonnoujiYoung SheldonClub ZeroAll AmericanWWE RawStress PositionsShadow MagicBetter Call SaulThe Name of the RosePointlessThe SimpsonsTMZ Presents: The Downfall of DiddyDevil in the FleshS.W.A.T.TrackerThe EqualizerTales of Ordinary MadnessArthur the KingGolden KamuyBeacon 23

Announcements

04/22

2024

1

Comments

Tracker 2024 S01E09 Aurora 720p AMZN WEB-DL DDP5 1 H 264-NTb
[RR/NF]
Size: 965MB mkv H264 (HIGH) / EAC3  HD  1280x720

Tracker
File Information
[img]http://lookpic.com/cdn/i2/t/0422202419390438-1.jpg[/img]
[img]http://lookpic.com/cdn/i2/t/0422202419390438-2.jpg[/img]
[img]http://lookpic.com/cdn/i2/t/0422202419390438-3.jpg[/img]

General
Unique ID                                : 83677386986705967106696955731873159340 (0x3EF3ADB3EAF430418840762F5540D8AC)
Complete name                            : Tracker 2024 S01E09 Aurora 720p AMZN WEB-DL DDP5 1 H 264-NTb.mkv
Format                                   : Matroska
Format version                           : Version 4
File size                                : 966 MiB
Duration                                 : 41 min 3 s
Overall bit rate                         : 3 289 kb/s
Frame rate                               : 23.976 FPS
Writing application                      : mkvmerge v81.0 ('Milliontown') 64-bit
Writing library                          : libebml v1.4.4 + libmatroska v1.7.1

Video
ID                                       : 1
Format                                   : AVC
Format/Info                              : Advanced Video Codec
Format profile                           : High@L3.1
Format settings                          : CABAC / 4 Ref Frames
Format settings, CABAC                   : Yes
Format settings, Reference frames        : 4 frames
Codec ID                                 : V_MPEG4/ISO/AVC
Duration                                 : 41 min 3 s
Bit rate mode                            : Constant
Bit rate                                 : 2 646 kb/s
Nominal bit rate                         : 4 000 kb/s
Width                                    : 1 280 pixels
Height                                   : 720 pixels
Display aspect ratio                     : 16:9
Frame rate mode                          : Constant
Frame rate                               : 23.976 (24000/1001) FPS
Color space                              : YUV
Chroma subsampling                       : 4:2:0
Bit depth                                : 8 bits
Scan type                                : Progressive
Bits/(Pixel*Frame)                       : 0.120
Stream size                              : 777 MiB (80%)
Default                                  : Yes
Forced                                   : No
Color range                              : Limited
Color primaries                          : BT.709
Transfer characteristics                 : BT.709
Matrix coefficients                      : BT.709

Audio
ID                                       : 2
Format                                   : E-AC-3
Format/Info                              : Enhanced AC-3
Commercial name                          : Dolby Digital Plus
Codec ID                                 : A_EAC3
Duration                                 : 41 min 3 s
Bit rate mode                            : Constant
Bit rate                                 : 640 kb/s
Channel(s)                               : 6 channels
Channel layout                           : L R C LFE Ls Rs
Sampling rate                            : 48.0 kHz
Frame rate                               : 31.250 FPS (1536 SPF)
Compression mode                         : Lossy
Stream size                              : 188 MiB (19%)
Language                                 : English (US)
Service kind                             : Complete Main
Default                                  : Yes
Forced                                   : No

Text #1
ID                                       : 3
Format                                   : UTF-8
Codec ID                                 : S_TEXT/UTF8
Codec ID/Info                            : UTF-8 Plain Text
Duration                                 : 40 min 27 s
Bit rate                                 : 76 b/s
Frame rate                               : 0.307 FPS
Count of elements                        : 746
Stream size                              : 22.8 KiB (0%)
Language                                 : English (US)
Default                                  : No
Forced                                   : No

Text #2
ID                                       : 4
Format                                   : UTF-8
Codec ID                                 : S_TEXT/UTF8
Codec ID/Info                            : UTF-8 Plain Text
Duration                                 : 40 min 32 s
Bit rate                                 : 80 b/s
Frame rate                               : 0.330 FPS
Count of elements                        : 803
Stream size                              : 23.9 KiB (0%)
Title                                    : SDH
Language                                 : English (US)
Default                                  : No
Forced                                   : No



Download
File Container: MKV
Video/Audio Codec: H264 (HIGH) EAC3
Video Resolution: 1280x720

1 Response to "[RR/NF] Tracker 2024 S01E09 Aurora 720p AMZN WEB-DL DDP5 1 H 264-NTb (965MB)"
04/22/24
20:50:45
ReadyPlayerOne

Thank you!

Please Login to post a comment.
If you don't have any account, please Register.
  • Subscribe my Feeds
  • Facebook
Encoding Queue:  x264  x265

Latest Episodes

Popular Movies and TV Shows

  • The Fall Guy
  • Boy Kills World
  • The Veil
  • Seize Them!
  • Oblivion Battery
  • Touken Ranbu Kai: Kyoden Moyuru Honnouji
  • Young Sheldon
  • Club Zero
  • All American
  • WWE Raw
  • Stress Positions
  • Shadow Magic
  • Better Call Saul
  • The Name of the Rose
  • Pointless
  • The Simpsons
  • TMZ Presents: The Downfall of Diddy
  • Devil in the Flesh
  • S.W.A.T.
  • Tracker
  • The Equalizer
  • Tales of Ordinary Madness
  • Arthur the King
  • Golden Kamuy
  • Beacon 23

Recent Comments

  • PROFessorMorrynarty: Would it be possible to upload 'Lego masters Australia' Series 6 Episode 6 Please? It's the only one...
  • mentalityx:

    Thx mate.

  • Bud: Is the search engine down for everyone, or just me? It just says 'You're forbidden!' whenever I lo...
  • 23d1:

    not episode 4 it is episode 3

  • 23d1:

    not episode 4 it is episode 3

  • 23d1:

    not episode 4 it is episode 3

  • 23d1:

    not episode 4 it is episode 3

  • aaroz88:

    Trimas!!

  • mptoo: I don't often ask this, infact this would be the first time, but I don't suppose there is any chance...
  • Cinque_Persson:

    btw:
    quote /quote
    is broken

  • gabrielsyme:

    Sorry but where is the clicknupload link?

  • mike1204:

    Is this episode doomed??? The RMX avi version is only 12 minutes long!!!

Archives