Sign Up   |   Sign In  
Mayor of KingstownBilly the Kid90 Day Fiancé: Happily Ever After?R.I.P.D.Raya and the Last DragonRatatouilleLove IslandLicence to KillLook to the LightKung Fu HustleDoctor ClimaxTeen Mom: The Next ChapterThe Bold and the BeautifulThe Loud HouseWelcome to WrexhamThere's Something About MaryVice News Presents: Mass Shooting AmericaHit ManWWE NXTCatfish: The TV ShowWalkerEnter the Clones of BruceImmaculateInside Out 2The Daily Show

Announcements

05/29

2024

1

Comments

Trying S04E03 Murder at Slaughterbridge Manor 720p ATVP WEB-DL DDP5 1 Atmos H 264-FLUX
[RR/NF/CU]
Size: 696MB mkv H264 (HIGH) / EAC3  HD  1356x678

Trying
File Information
[img]http://lookpic.com/cdn/i2/t/0529202403545274-1.jpg[/img]
[img]http://lookpic.com/cdn/i2/t/0529202403545274-2.jpg[/img]
[img]http://lookpic.com/cdn/i2/t/0529202403545274-3.jpg[/img]

General
Unique ID                                : 40861708607174218509455803216689670955 (0x1EBDADC70D3DB180034DF5383E58AB2B)
Complete name                            : Trying S04E03 Murder at Slaughterbridge Manor 720p ATVP WEB-DL DDP5 1 Atmos H 264-FLUX.mkv
Format                                   : Matroska
Format version                           : Version 4
File size                                : 696 MiB
Duration                                 : 27 min 9 s
Overall bit rate                         : 3 584 kb/s
Frame rate                               : 23.976 FPS
Writing application                      : mkvmerge v79.0 ('Funeral Pyres') 64-bit
Writing library                          : libebml v1.4.4 + libmatroska v1.7.1

Video
ID                                       : 1
Format                                   : AVC
Format/Info                              : Advanced Video Codec
Format profile                           : High@L3.2
Format settings                          : CABAC / 5 Ref Frames
Format settings, CABAC                   : Yes
Format settings, Reference frames        : 5 frames
Codec ID                                 : V_MPEG4/ISO/AVC
Duration                                 : 27 min 9 s
Bit rate                                 : 2 807 kb/s
Width                                    : 1 356 pixels
Height                                   : 678 pixels
Display aspect ratio                     : 2.000
Frame rate mode                          : Constant
Frame rate                               : 23.976 (24000/1001) FPS
Color space                              : YUV
Chroma subsampling                       : 4:2:0
Bit depth                                : 8 bits
Scan type                                : Progressive
Bits/(Pixel*Frame)                       : 0.127
Stream size                              : 545 MiB (78%)
Language                                 : English
Default                                  : Yes
Forced                                   : No
Color range                              : Limited
Color primaries                          : BT.709
Transfer characteristics                 : BT.709
Matrix coefficients                      : BT.709

Audio
ID                                       : 2
Format                                   : E-AC-3 JOC
Format/Info                              : Enhanced AC-3 with Joint Object Coding
Commercial name                          : Dolby Digital Plus with Dolby Atmos
Codec ID                                 : A_EAC3
Duration                                 : 27 min 9 s
Bit rate mode                            : Constant
Bit rate                                 : 768 kb/s
Channel(s)                               : 6 channels
Channel layout                           : L R C LFE Ls Rs
Sampling rate                            : 48.0 kHz
Frame rate                               : 31.250 FPS (1536 SPF)
Compression mode                         : Lossy
Stream size                              : 149 MiB (21%)
Language                                 : English
Service kind                             : Complete Main
Default                                  : Yes
Forced                                   : No
Complexity index                         : 16
Number of dynamic objects                : 15
Bed channel count                        : 1 channel
Bed channel configuration                : LFE

Text #1
ID                                       : 3
Format                                   : UTF-8
Codec ID                                 : S_TEXT/UTF8
Codec ID/Info                            : UTF-8 Plain Text
Duration                                 : 25 min 6 s
Bit rate                                 : 76 b/s
Frame rate                               : 0.251 FPS
Count of elements                        : 378
Stream size                              : 14.0 KiB (0%)
Language                                 : English
Default                                  : No
Forced                                   : No

Text #2
ID                                       : 4
Format                                   : UTF-8
Codec ID                                 : S_TEXT/UTF8
Codec ID/Info                            : UTF-8 Plain Text
Duration                                 : 25 min 30 s
Bit rate                                 : 85 b/s
Frame rate                               : 0.271 FPS
Count of elements                        : 415
Stream size                              : 16.0 KiB (0%)
Title                                    : SDH
Language                                 : English
Default                                  : No
Forced                                   : No

Text #3
ID                                       : 5
Format                                   : UTF-8
Codec ID                                 : S_TEXT/UTF8
Codec ID/Info                            : UTF-8 Plain Text
Duration                                 : 26 min 22 s
Bit rate                                 : 111 b/s
Frame rate                               : 0.242 FPS
Count of elements                        : 383
Stream size                              : 21.6 KiB (0%)
Language                                 : Arabic
Default                                  : No
Forced                                   : No

Text #4
ID                                       : 6
Format                                   : UTF-8
Codec ID                                 : S_TEXT/UTF8
Codec ID/Info                            : UTF-8 Plain Text
Duration                                 : 26 min 22 s
Bit rate                                 : 93 b/s
Frame rate                               : 0.197 FPS
Count of elements                        : 312
Stream size                              : 18.2 KiB (0%)
Language                                 : Bulgarian
Default                                  : No
Forced                                   : No

Text #5
ID                                       : 7
Format                                   : UTF-8
Codec ID                                 : S_TEXT/UTF8
Codec ID/Info                            : UTF-8 Plain Text
Duration                                 : 26 min 22 s
Bit rate                                 : 61 b/s
Frame rate                               : 0.244 FPS
Count of elements                        : 386
Stream size                              : 11.9 KiB (0%)
Title                                    : Simplified
Language                                 : Chinese (Simplified)
Default                                  : No
Forced                                   : No

Text #6
ID                                       : 8
Format                                   : UTF-8
Codec ID                                 : S_TEXT/UTF8
Codec ID/Info                            : UTF-8 Plain Text
Duration                                 : 26 min 22 s
Bit rate                                 : 63 b/s
Frame rate                               : 0.245 FPS
Count of elements                        : 387
Stream size                              : 12.3 KiB (0%)
Title                                    : Traditional
Language                                 : Chinese (Traditional)
Default                                  : No
Forced                                   : No

Text #7
ID                                       : 9
Format                                   : UTF-8
Codec ID                                 : S_TEXT/UTF8
Codec ID/Info                            : UTF-8 Plain Text
Duration                                 : 26 min 22 s
Bit rate                                 : 61 b/s
Frame rate                               : 0.233 FPS
Count of elements                        : 368
Stream size                              : 11.9 KiB (0%)
Language                                 : Czech
Default                                  : No
Forced                                   : No

Text #8
ID                                       : 10
Format                                   : UTF-8
Codec ID                                 : S_TEXT/UTF8
Codec ID/Info                            : UTF-8 Plain Text
Duration                                 : 26 min 22 s
Bit rate                                 : 69 b/s
Frame rate                               : 0.231 FPS
Count of elements                        : 366
Stream size                              : 13.4 KiB (0%)
Language                                 : Danish
Default                                  : No
Forced                                   : No

Text #9
ID                                       : 11
Format                                   : UTF-8
Codec ID                                 : S_TEXT/UTF8
Codec ID/Info                            : UTF-8 Plain Text
Duration                                 : 25 min 40 s
Bit rate                                 : 69 b/s
Frame rate                               : 0.257 FPS
Count of elements                        : 396
Stream size                              : 13.0 KiB (0%)
Language                                 : German
Default                                  : No
Forced                                   : No

Text #10
ID                                       : 12
Format                                   : UTF-8
Codec ID                                 : S_TEXT/UTF8
Codec ID/Info                            : UTF-8 Plain Text
Duration                                 : 26 min 22 s
Bit rate                                 : 117 b/s
Frame rate                               : 0.233 FPS
Count of elements                        : 368
Stream size                              : 22.6 KiB (0%)
Language                                 : Greek
Default                                  : No
Forced                                   : No

Text #11
ID                                       : 13
Format                                   : UTF-8
Codec ID                                 : S_TEXT/UTF8
Codec ID/Info                            : UTF-8 Plain Text
Duration                                 : 26 min 22 s
Bit rate                                 : 69 b/s
Frame rate                               : 0.244 FPS
Count of elements                        : 386
Stream size                              : 13.4 KiB (0%)
Title                                    : Latin American
Language                                 : Spanish (Latin America)
Default                                  : No
Forced                                   : No

Text #12
ID                                       : 14
Format                                   : UTF-8
Codec ID                                 : S_TEXT/UTF8
Codec ID/Info                            : UTF-8 Plain Text
Duration                                 : 26 min 22 s
Bit rate                                 : 69 b/s
Frame rate                               : 0.246 FPS
Count of elements                        : 389
Stream size                              : 13.4 KiB (0%)
Language                                 : Spanish (ES)
Default                                  : No
Forced                                   : No

Text #13
ID                                       : 15
Format                                   : UTF-8
Codec ID                                 : S_TEXT/UTF8
Codec ID/Info                            : UTF-8 Plain Text
Duration                                 : 26 min 22 s
Bit rate                                 : 64 b/s
Frame rate                               : 0.233 FPS
Count of elements                        : 368
Stream size                              : 12.4 KiB (0%)
Language                                 : Estonian
Default                                  : No
Forced                                   : No

Text #14
ID                                       : 16
Format                                   : UTF-8
Codec ID                                 : S_TEXT/UTF8
Codec ID/Info                            : UTF-8 Plain Text
Duration                                 : 26 min 22 s
Bit rate                                 : 69 b/s
Frame rate                               : 0.243 FPS
Count of elements                        : 384
Stream size                              : 13.5 KiB (0%)
Language                                 : Finnish
Default                                  : No
Forced                                   : No

Text #15
ID                                       : 17
Format                                   : UTF-8
Codec ID                                 : S_TEXT/UTF8
Codec ID/Info                            : UTF-8 Plain Text
Duration                                 : 25 min 33 s
Bit rate                                 : 62 b/s
Frame rate                               : 0.282 FPS
Count of elements                        : 432
Stream size                              : 11.8 KiB (0%)
Title                                    : Canadian
Language                                 : French (CA)
Default                                  : No
Forced                                   : No

Text #16
ID                                       : 18
Format                                   : UTF-8
Codec ID                                 : S_TEXT/UTF8
Codec ID/Info                            : UTF-8 Plain Text
Duration                                 : 25 min 33 s
Bit rate                                 : 62 b/s
Frame rate                               : 0.281 FPS
Count of elements                        : 431
Stream size                              : 11.7 KiB (0%)
Language                                 : French (FR)
Default                                  : No
Forced                                   : No

Text #17
ID                                       : 19
Format                                   : UTF-8
Codec ID                                 : S_TEXT/UTF8
Codec ID/Info                            : UTF-8 Plain Text
Duration                                 : 26 min 22 s
Bit rate                                 : 103 b/s
Frame rate                               : 0.245 FPS
Count of elements                        : 387
Stream size                              : 20.0 KiB (0%)
Language                                 : Hebrew
Default                                  : No
Forced                                   : No

Text #18
ID                                       : 20
Format                                   : UTF-8
Codec ID                                 : S_TEXT/UTF8
Codec ID/Info                            : UTF-8 Plain Text
Duration                                 : 26 min 22 s
Bit rate                                 : 191 b/s
Frame rate                               : 0.246 FPS
Count of elements                        : 389
Stream size                              : 37.0 KiB (0%)
Language                                 : Hindi
Default                                  : No
Forced                                   : No

Text #19
ID                                       : 21
Format                                   : UTF-8
Codec ID                                 : S_TEXT/UTF8
Codec ID/Info                            : UTF-8 Plain Text
Duration                                 : 26 min 22 s
Bit rate                                 : 73 b/s
Frame rate                               : 0.245 FPS
Count of elements                        : 388
Stream size                              : 14.2 KiB (0%)
Language                                 : Hungarian
Default                                  : No
Forced                                   : No

Text #20
ID                                       : 22
Format                                   : UTF-8
Codec ID                                 : S_TEXT/UTF8
Codec ID/Info                            : UTF-8 Plain Text
Duration                                 : 26 min 22 s
Bit rate                                 : 70 b/s
Frame rate                               : 0.243 FPS
Count of elements                        : 384
Stream size                              : 13.7 KiB (0%)
Language                                 : Indonesian
Default                                  : No
Forced                                   : No

Text #21
ID                                       : 23
Format                                   : UTF-8
Codec ID                                 : S_TEXT/UTF8
Codec ID/Info                            : UTF-8 Plain Text
Duration                                 : 26 min 17 s
Bit rate                                 : 67 b/s
Frame rate                               : 0.241 FPS
Count of elements                        : 381
Stream size                              : 12.9 KiB (0%)
Language                                 : Italian
Default                                  : No
Forced                                   : No

Text #22
ID                                       : 24
Format                                   : UTF-8
Codec ID                                 : S_TEXT/UTF8
Codec ID/Info                            : UTF-8 Plain Text
Duration                                 : 26 min 25 s
Bit rate                                 : 57 b/s
Frame rate                               : 0.259 FPS
Count of elements                        : 411
Stream size                              : 11.1 KiB (0%)
Language                                 : Japanese
Default                                  : No
Forced                                   : No

Text #23
ID                                       : 25
Format                                   : UTF-8
Codec ID                                 : S_TEXT/UTF8
Codec ID/Info                            : UTF-8 Plain Text
Duration                                 : 26 min 22 s
Bit rate                                 : 71 b/s
Frame rate                               : 0.246 FPS
Count of elements                        : 389
Stream size                              : 13.9 KiB (0%)
Language                                 : Korean
Default                                  : No
Forced                                   : No

Text #24
ID                                       : 26
Format                                   : UTF-8
Codec ID                                 : S_TEXT/UTF8
Codec ID/Info                            : UTF-8 Plain Text
Duration                                 : 26 min 22 s
Bit rate                                 : 66 b/s
Frame rate                               : 0.243 FPS
Count of elements                        : 384
Stream size                              : 12.8 KiB (0%)
Language                                 : Lithuanian
Default                                  : No
Forced                                   : No

Text #25
ID                                       : 27
Format                                   : UTF-8
Codec ID                                 : S_TEXT/UTF8
Codec ID/Info                            : UTF-8 Plain Text
Duration                                 : 26 min 22 s
Bit rate                                 : 71 b/s
Frame rate                               : 0.238 FPS
Count of elements                        : 376
Stream size                              : 13.7 KiB (0%)
Language                                 : Latvian
Default                                  : No
Forced                                   : No

Text #26
ID                                       : 28
Format                                   : UTF-8
Codec ID                                 : S_TEXT/UTF8
Codec ID/Info                            : UTF-8 Plain Text
Duration                                 : 26 min 22 s
Bit rate                                 : 69 b/s
Frame rate                               : 0.243 FPS
Count of elements                        : 384
Stream size                              : 13.3 KiB (0%)
Language                                 : Malay
Default                                  : No
Forced                                   : No

Text #27
ID                                       : 29
Format                                   : UTF-8
Codec ID                                 : S_TEXT/UTF8
Codec ID/Info                            : UTF-8 Plain Text
Duration                                 : 26 min 22 s
Bit rate                                 : 62 b/s
Frame rate                               : 0.205 FPS
Count of elements                        : 324
Stream size                              : 12.1 KiB (0%)
Language                                 : Dutch
Default                                  : No
Forced                                   : No

Text #28
ID                                       : 30
Format                                   : UTF-8
Codec ID                                 : S_TEXT/UTF8
Codec ID/Info                            : UTF-8 Plain Text
Duration                                 : 26 min 22 s
Bit rate                                 : 63 b/s
Frame rate                               : 0.215 FPS
Count of elements                        : 340
Stream size                              : 12.3 KiB (0%)
Language                                 : Norwegian
Default                                  : No
Forced                                   : No

Text #29
ID                                       : 31
Format                                   : UTF-8
Codec ID                                 : S_TEXT/UTF8
Codec ID/Info                            : UTF-8 Plain Text
Duration                                 : 26 min 22 s
Bit rate                                 : 62 b/s
Frame rate                               : 0.230 FPS
Count of elements                        : 364
Stream size                              : 12.0 KiB (0%)
Language                                 : Polish
Default                                  : No
Forced                                   : No

Text #30
ID                                       : 32
Format                                   : UTF-8
Codec ID                                 : S_TEXT/UTF8
Codec ID/Info                            : UTF-8 Plain Text
Duration                                 : 26 min 22 s
Bit rate                                 : 64 b/s
Frame rate                               : 0.240 FPS
Count of elements                        : 379
Stream size                              : 12.5 KiB (0%)
Language                                 : Portuguese
Default                                  : No
Forced                                   : No

Text #31
ID                                       : 33
Format                                   : UTF-8
Codec ID                                 : S_TEXT/UTF8
Codec ID/Info                            : UTF-8 Plain Text
Duration                                 : 26 min 22 s
Bit rate                                 : 63 b/s
Frame rate                               : 0.231 FPS
Count of elements                        : 365
Stream size                              : 12.4 KiB (0%)
Title                                    : Brazilian
Language                                 : Portuguese (BR)
Default                                  : No
Forced                                   : No

Text #32
ID                                       : 34
Format                                   : UTF-8
Codec ID                                 : S_TEXT/UTF8
Codec ID/Info                            : UTF-8 Plain Text
Duration                                 : 26 min 22 s
Bit rate                                 : 103 b/s
Frame rate                               : 0.240 FPS
Count of elements                        : 379
Stream size                              : 20.0 KiB (0%)
Language                                 : Russian
Default                                  : No
Forced                                   : No

Text #33
ID                                       : 35
Format                                   : UTF-8
Codec ID                                 : S_TEXT/UTF8
Codec ID/Info                            : UTF-8 Plain Text
Duration                                 : 26 min 22 s
Bit rate                                 : 64 b/s
Frame rate                               : 0.244 FPS
Count of elements                        : 386
Stream size                              : 12.5 KiB (0%)
Language                                 : Slovak
Default                                  : No
Forced                                   : No

Text #34
ID                                       : 36
Format                                   : UTF-8
Codec ID                                 : S_TEXT/UTF8
Codec ID/Info                            : UTF-8 Plain Text
Duration                                 : 26 min 22 s
Bit rate                                 : 58 b/s
Frame rate                               : 0.230 FPS
Count of elements                        : 364
Stream size                              : 11.3 KiB (0%)
Language                                 : Slovenian
Default                                  : No
Forced                                   : No

Text #35
ID                                       : 37
Format                                   : UTF-8
Codec ID                                 : S_TEXT/UTF8
Codec ID/Info                            : UTF-8 Plain Text
Duration                                 : 26 min 22 s
Bit rate                                 : 68 b/s
Frame rate                               : 0.243 FPS
Count of elements                        : 385
Stream size                              : 13.3 KiB (0%)
Language                                 : Swedish
Default                                  : No
Forced                                   : No

Text #36
ID                                       : 38
Format                                   : UTF-8
Codec ID                                 : S_TEXT/UTF8
Codec ID/Info                            : UTF-8 Plain Text
Duration                                 : 26 min 22 s
Bit rate                                 : 222 b/s
Frame rate                               : 0.245 FPS
Count of elements                        : 388
Stream size                              : 43.0 KiB (0%)
Language                                 : Tamil
Default                                  : No
Forced                                   : No

Text #37
ID                                       : 39
Format                                   : UTF-8
Codec ID                                 : S_TEXT/UTF8
Codec ID/Info                            : UTF-8 Plain Text
Duration                                 : 26 min 22 s
Bit rate                                 : 207 b/s
Frame rate                               : 0.245 FPS
Count of elements                        : 388
Stream size                              : 40.1 KiB (0%)
Language                                 : Telugu
Default                                  : No
Forced                                   : No

Text #38
ID                                       : 40
Format                                   : UTF-8
Codec ID                                 : S_TEXT/UTF8
Codec ID/Info                            : UTF-8 Plain Text
Duration                                 : 26 min 22 s
Bit rate                                 : 172 b/s
Frame rate                               : 0.245 FPS
Count of elements                        : 387
Stream size                              : 33.3 KiB (0%)
Language                                 : Thai
Default                                  : No
Forced                                   : No

Text #39
ID                                       : 41
Format                                   : UTF-8
Codec ID                                 : S_TEXT/UTF8
Codec ID/Info                            : UTF-8 Plain Text
Duration                                 : 26 min 22 s
Bit rate                                 : 67 b/s
Frame rate                               : 0.233 FPS
Count of elements                        : 369
Stream size                              : 13.0 KiB (0%)
Language                                 : Turkish
Default                                  : No
Forced                                   : No

Text #40
ID                                       : 42
Format                                   : UTF-8
Codec ID                                 : S_TEXT/UTF8
Codec ID/Info                            : UTF-8 Plain Text
Duration                                 : 26 min 22 s
Bit rate                                 : 107 b/s
Frame rate                               : 0.245 FPS
Count of elements                        : 387
Stream size                              : 20.8 KiB (0%)
Language                                 : Ukrainian
Default                                  : No
Forced                                   : No

Text #41
ID                                       : 43
Format                                   : UTF-8
Codec ID                                 : S_TEXT/UTF8
Codec ID/Info                            : UTF-8 Plain Text
Duration                                 : 26 min 22 s
Bit rate                                 : 89 b/s
Frame rate                               : 0.245 FPS
Count of elements                        : 387
Stream size                              : 17.3 KiB (0%)
Language                                 : Vietnamese
Default                                  : No
Forced                                   : No

Text #42
ID                                       : 44
Format                                   : UTF-8
Codec ID                                 : S_TEXT/UTF8
Codec ID/Info                            : UTF-8 Plain Text
Duration                                 : 26 min 22 s
Bit rate                                 : 60 b/s
Frame rate                               : 0.245 FPS
Count of elements                        : 387
Stream size                              : 11.8 KiB (0%)
Title                                    : Traditional
Language                                 : Cantonese (Hant)
Default                                  : No
Forced                                   : No

Menu
00:00:00.000                             : en:Studio Logo
00:00:08.843                             : en:Main
00:26:05.208                             : en:Credits



Download
File Container: MKV
Video/Audio Codec: H264 (HIGH) EAC3
Video Resolution: 1356x678

1 Response to "[RR/NF/CU] Trying S04E03 Murder at Slaughterbridge Manor 720p ATVP WEB-DL DDP5 1 Atmos H 264-FLUX (696MB)"
05/29/24
04:06:53
ReadyPlayerOne

Thank you!

Please Login to post a comment.
If you don't have any account, please Register.
  • Subscribe my Feeds
  • Facebook
Encoding Queue:  x264  x265

Latest Episodes

Popular Movies and TV Shows

  • Mayor of Kingstown
  • Billy the Kid
  • 90 Day Fiancé: Happily Ever After?
  • R.I.P.D.
  • Raya and the Last Dragon
  • Ratatouille
  • Love Island
  • Licence to Kill
  • Look to the Light
  • Kung Fu Hustle
  • Doctor Climax
  • Teen Mom: The Next Chapter
  • The Bold and the Beautiful
  • The Loud House
  • Welcome to Wrexham
  • There's Something About Mary
  • Vice News Presents: Mass Shooting America
  • Hit Man
  • WWE NXT
  • Catfish: The TV Show
  • Walker
  • Enter the Clones of Bruce
  • Immaculate
  • Inside Out 2
  • The Daily Show

Recent Comments

Archives