Sign Up   |   Sign In  
Devil in the FleshThe SimpsonsGolden KamuyChillin' in Another World with Level 2 Super Cheat PowersBaby DriverNatureTrackerThe EqualizerCSI: VegasChallengersTriple FrontierA Walk Among the TombstonesThe SympathizerKrapopolisBob's BurgersThe Baby DaddyPhil Tippett: Mad Dreams and MonstersDawn of the Planet of the ApesBeacon 23Young SheldonThe Great NorthEverything PuppiesExhumaPlanet of the ApesS.W.A.T.

Announcements

04/20

2024

1

Comments

Veep S01E01 1080p HMAX WEB-DL DD 5 1 x264-ADWeb
[RR/NF/CU]
Size: 1.8GB mkv H264 (HIGH) / AC3  HD  1920x1080

Veep
File Information
[img]http://lookpic.com/cdn/i2/t/0420202415110247-1.jpg[/img]
[img]http://lookpic.com/cdn/i2/t/0420202415110247-2.jpg[/img]
[img]http://lookpic.com/cdn/i2/t/0420202415110247-3.jpg[/img]

General
Unique ID                                : 125707090680672351266718691786596008603 (0x5E924E158D898D5AC4B1B4AECE53C29B)
Complete name                            : Veep S01E01 1080p HMAX WEB-DL DD 5 1 x264-ADWeb.mkv
Format                                   : Matroska
Format version                           : Version 4
File size                                : 1.76 GiB
Duration                                 : 29 min 16 s
Overall bit rate mode                    : Variable
Overall bit rate                         : 8 623 kb/s
Frame rate                               : 23.976 FPS
Encoded date                             : 2022-09-11 13:35:49 UTC
Writing application                      : mkvmerge v70.0.0 ('Caught A Lite Sneeze') 64-bit
Writing library                          : libebml v1.4.2 + libmatroska v1.6.4

Video
ID                                       : 1
Format                                   : AVC
Format/Info                              : Advanced Video Codec
Format profile                           : High@L4
Format settings                          : CABAC / 4 Ref Frames
Format settings, CABAC                   : Yes
Format settings, Reference frames        : 4 frames
Codec ID                                 : V_MPEG4/ISO/AVC
Duration                                 : 29 min 16 s
Bit rate mode                            : Variable
Bit rate                                 : 8 250 kb/s
Maximum bit rate                         : 12.4 Mb/s
Width                                    : 1 920 pixels
Height                                   : 1 080 pixels
Display aspect ratio                     : 16:9
Frame rate mode                          : Constant
Frame rate                               : 23.976 (24000/1001) FPS
Color space                              : YUV
Chroma subsampling                       : 4:2:0
Bit depth                                : 8 bits
Scan type                                : Progressive
Bits/(Pixel*Frame)                       : 0.166
Stream size                              : 1.68 GiB (96%)
Writing library                          : x264 core 157 r2965 861cec4
 Encoding settings                        : cabac=1 / ref=4 / deblock=1:0:0 / analyse=0x3:0x113 / me=hex / subme=7 / psy=1 / psy_rd=1.00:0.00 / mixed_ref=1 / me_range=16 / chroma_me=1 / trellis=1 / 8x8dct=1 / cqm=0 / deadz / fast pskip=1 / chroma_qp_offset=-2 / threads=34 / lookahead_threads=5 / sliced_threads=0 / nr=0 / decimate=1 / interlaced=0 / bluray_compat=0 / c / bframes=3 / b_pyramid=2 / b_adapt=1 / b_bias=0 / direct=1 / weightb=1 / open_gop=0 / weightp=2 / keyint=96 / keyint_min=96 / scenecut=40 / intra_refresh=0 / rc_lookahead=40 / rc=2pass / mbtree=1 / bitrate=8250 / ratetol=1.0 / qcomp=0.60 / qpmin=0 / qpmax=69 / qpstep=4 / cplxblur=20.0 / qblur=0.5 / vbv_maxrate=12375 / vbv_bufsize=6187 / nal_hrd=vbr / filler=0 / ip_ratio=1.40 / aq=1:1.00
Default                                  : Yes
Forced                                   : No
Color range                              : Limited
Color primaries                          : BT.709
Transfer characteristics                 : BT.709
Matrix coefficients                      : BT.709

Audio
ID                                       : 2
Format                                   : AC-3
Format/Info                              : Audio Coding 3
Commercial name                          : Dolby Digital
Codec ID                                 : A_AC3
Duration                                 : 29 min 16 s
Bit rate mode                            : Constant
Bit rate                                 : 384 kb/s
Channel(s)                               : 6 channels
Channel layout                           : L R C LFE Ls Rs
Sampling rate                            : 48.0 kHz
Frame rate                               : 31.250 FPS (1536 SPF)
Compression mode                         : Lossy
Delay relative to video                  : -83 ms
Stream size                              : 80.4 MiB (4%)
Language                                 : English
Service kind                             : Complete Main
Default                                  : Yes
Forced                                   : No

Text #1
ID                                       : 3
Format                                   : UTF-8
Codec ID                                 : S_TEXT/UTF8
Codec ID/Info                            : UTF-8 Plain Text
Duration                                 : 28 min 51 s
Bit rate                                 : 93 b/s
Frame rate                               : 0.331 FPS
Count of elements                        : 574
Stream size                              : 19.7 KiB (0%)
Title                                    : tS+S+
Language                                 : Chinese (Simplified)
Default                                  : Yes
Forced                                   : No

Text #2
ID                                       : 4
Format                                   : UTF-8
Codec ID                                 : S_TEXT/UTF8
Codec ID/Info                            : UTF-8 Plain Text
Duration                                 : 28 min 51 s
Bit rate                                 : 93 b/s
Frame rate                               : 0.331 FPS
Count of elements                        : 574
Stream size                              : 19.7 KiB (0%)
Title                                    : tTS+
Language                                 : Chinese (Traditional)
Default                                  : No
Forced                                   : No

Text #3
ID                                       : 5
Format                                   : UTF-8
Codec ID                                 : S_TEXT/UTF8
Codec ID/Info                            : UTF-8 Plain Text
Duration                                 : 29 min 5 s
Bit rate                                 : 125 b/s
Frame rate                               : 0.396 FPS
Count of elements                        : 692
Stream size                              : 26.8 KiB (0%)
Language                                 : English (US)
Default                                  : No
Forced                                   : No



Download
File Container: MKV
Video/Audio Codec: H264 (HIGH) AC3
Video Resolution: 1920x1080

1 Response to "[RR/NF/CU] Veep S01E01 1080p HMAX WEB-DL DD 5 1 x264-ADWeb (1.8GB)"
04/20/24
16:38:57
ReadyPlayerOne

Thank You

Please Login to post a comment.
If you don't have any account, please Register.
  • Subscribe my Feeds
  • Facebook
Encoding Queue:  x264  x265

Latest Episodes

Popular Movies and TV Shows

  • Devil in the Flesh
  • The Simpsons
  • Golden Kamuy
  • Chillin' in Another World with Level 2 Super Cheat Powers
  • Baby Driver
  • Nature
  • Tracker
  • The Equalizer
  • CSI: Vegas
  • Challengers
  • Triple Frontier
  • A Walk Among the Tombstones
  • The Sympathizer
  • Krapopolis
  • Bob's Burgers
  • The Baby Daddy
  • Phil Tippett: Mad Dreams and Monsters
  • Dawn of the Planet of the Apes
  • Beacon 23
  • Young Sheldon
  • The Great North
  • Everything Puppies
  • Exhuma
  • Planet of the Apes
  • S.W.A.T.

Recent Comments

  • Bud: Is the search engine down for everyone, or just me? It just says 'You're forbidden!' whenever I lo...
  • 23d1:

    not episode 4 it is episode 3

  • 23d1:

    not episode 4 it is episode 3

  • 23d1:

    not episode 4 it is episode 3

  • 23d1:

    not episode 4 it is episode 3

  • aaroz88:

    Trimas!!

  • mptoo: I don't often ask this, infact this would be the first time, but I don't suppose there is any chance...
  • Cinque_Persson:

    btw:
    quote /quote
    is broken

  • gabrielsyme:

    Sorry but where is the clicknupload link?

  • mike1204:

    Is this episode doomed??? The RMX avi version is only 12 minutes long!!!

  • waanaabe:

    Could PUSHING DAISES kindly be upoaded to CU? THANKS!

Archives