Sign Up   |   Sign In  
Ghostbusters: Frozen EmpireAll You Need Is DeathThe Bold and the BeautifulThe DiveBlood FreeAlert: Missing Persons UnitX-Men '97Star Wars: The Bad BatchUnder the BridgeThe BricklayerEvil Does Not ExistThe LoraxFBIFBI: InternationalThe Cleaning LadyGodzilla x Kong: The New EmpireAn American Bombing: The Road to April 19thImmaculateFBI: Most WantedPalm RoyaleShogunLa margeDune: Part TwoJimmy Carr: Natural Born KillerNCIS

Announcements

02/22

2024

No

Comments

Jellystone S03E16 Lil Honk Honks 1080p AMZN WEB-DL DDP5 1 H 264-NTb
[RR/NF/CU]
Size: 517MB mkv H264 (HIGH) / EAC3  HD  1920x1080

Jellystone
File Information
[img]http://lookpic.com/cdn/i2/t/0222202410353503-1.jpg[/img]
[img]http://lookpic.com/cdn/i2/t/0222202410353503-2.jpg[/img]
[img]http://lookpic.com/cdn/i2/t/0222202410353503-3.jpg[/img]

General
Unique ID                                : 201439035033973798050733929019967248301 (0x978BBF3861453F8C718FC2345AC797AD)
Complete name                            : Jellystone.S03E16.Lil.Honk.Honks.1080p.AMZN.WEB-DL.DDP5.1.H.264-NTb.mkv
Format                                   : Matroska
Format version                           : Version 4
File size                                : 518 MiB
Duration                                 : 11 min 12 s
Overall bit rate                         : 6 462 kb/s
Frame rate                               : 23.976 FPS
Writing application                      : mkvmerge v80.0 ('Roundabout') 64-bit
Writing library                          : libebml v1.4.4 + libmatroska v1.7.1

Video
ID                                       : 1
Format                                   : AVC
Format/Info                              : Advanced Video Codec
Format profile                           : High@L4
Format settings                          : CABAC / 4 Ref Frames
Format settings, CABAC                   : Yes
Format settings, Reference frames        : 4 frames
Codec ID                                 : V_MPEG4/ISO/AVC
Duration                                 : 11 min 12 s
Bit rate mode                            : Constant
Bit rate                                 : 5 819 kb/s
Nominal bit rate                         : 10 000 kb/s
Width                                    : 1 920 pixels
Height                                   : 1 080 pixels
Display aspect ratio                     : 16:9
Frame rate mode                          : Constant
Frame rate                               : 23.976 (24000/1001) FPS
Color space                              : YUV
Chroma subsampling                       : 4:2:0
Bit depth                                : 8 bits
Scan type                                : Progressive
Bits/(Pixel*Frame)                       : 0.117
Stream size                              : 466 MiB (90%)
Default                                  : Yes
Forced                                   : No
Color range                              : Limited
Color primaries                          : BT.709
Transfer characteristics                 : BT.709
Matrix coefficients                      : BT.709

Audio
ID                                       : 2
Format                                   : E-AC-3
Format/Info                              : Enhanced AC-3
Commercial name                          : Dolby Digital Plus
Codec ID                                 : A_EAC3
Duration                                 : 11 min 12 s
Bit rate mode                            : Constant
Bit rate                                 : 640 kb/s
Channel(s)                               : 6 channels
Channel layout                           : L R C LFE Ls Rs
Sampling rate                            : 48.0 kHz
Frame rate                               : 31.250 FPS (1536 SPF)
Compression mode                         : Lossy
Stream size                              : 51.3 MiB (10%)
Language                                 : English (US)
Service kind                             : Complete Main
Default                                  : Yes
Forced                                   : No

Text #1
ID                                       : 3
Format                                   : UTF-8
Codec ID                                 : S_TEXT/UTF8
Codec ID/Info                            : UTF-8 Plain Text
Duration                                 : 10 min 24 s
Bit rate                                 : 103 b/s
Frame rate                               : 0.405 FPS
Count of elements                        : 253
Stream size                              : 7.88 KiB (0%)
Language                                 : English (US)
Default                                  : No
Forced                                   : No

Text #2
ID                                       : 4
Format                                   : UTF-8
Codec ID                                 : S_TEXT/UTF8
Codec ID/Info                            : UTF-8 Plain Text
Duration                                 : 10 min 58 s
Bit rate                                 : 113 b/s
Frame rate                               : 0.428 FPS
Count of elements                        : 282
Stream size                              : 9.15 KiB (0%)
Title                                    : SDH
Language                                 : English (US)
Default                                  : No
Forced                                   : No

Text #3
ID                                       : 5
Format                                   : UTF-8
Codec ID                                 : S_TEXT/UTF8
Codec ID/Info                            : UTF-8 Plain Text
Duration                                 : 10 min 24 s
Bit rate                                 : 97 b/s
Frame rate                               : 0.336 FPS
Count of elements                        : 210
Stream size                              : 7.41 KiB (0%)
Language                                 : Spanish (Latin America)
Default                                  : No
Forced                                   : No

Text #4
ID                                       : 6
Format                                   : UTF-8
Codec ID                                 : S_TEXT/UTF8
Codec ID/Info                            : UTF-8 Plain Text
Duration                                 : 10 min 24 s
Bit rate                                 : 101 b/s
Frame rate                               : 0.334 FPS
Count of elements                        : 209
Stream size                              : 7.77 KiB (0%)
Language                                 : Portuguese (BR)
Default                                  : No
Forced                                   : No



Download
File Container: MKV
Video/Audio Codec: H264 (HIGH) EAC3
Video Resolution: 1920x1080
Please Login to post a comment.
If you don't have any account, please Register.
  • Subscribe my Feeds
  • Facebook
Encoding Queue:  x264  x265

Latest Episodes

Popular Movies and TV Shows

  • Ghostbusters: Frozen Empire
  • All You Need Is Death
  • The Bold and the Beautiful
  • The Dive
  • Blood Free
  • Alert: Missing Persons Unit
  • X-Men '97
  • Star Wars: The Bad Batch
  • Under the Bridge
  • The Bricklayer
  • Evil Does Not Exist
  • The Lorax
  • FBI
  • FBI: International
  • The Cleaning Lady
  • Godzilla x Kong: The New Empire
  • An American Bombing: The Road to April 19th
  • Immaculate
  • FBI: Most Wanted
  • Palm Royale
  • Shogun
  • La marge
  • Dune: Part Two
  • Jimmy Carr: Natural Born Killer
  • NCIS

Recent Comments

  • Bigfishguy:

    There's no free option to download this video. Can someone please upload it to clicknupload?

  • timt:

    Junk

  • timt:

    CAM Audio

  • timt:

    Hard Coded SUMS! Russian, I Think.

  • ubirattan:

    Mandem um Fikper, por favor.

  • kellym2: No answer yet for my query - why all the episodes "server under maintenance" on some episo...
  • Majnon:

    Rapidrar links are dead :(

  • Rake:

    Loads of "Server is under maintenance" with RR theese days...

  • kellym2: Why am I getting "Server is in maintenance mode" on some episodes of a series and not on o...
  • Bud:

    Are you ever going to put up Thursday's episode with Liev Schreiber?

  • alp-engin:

    When will that maintenance be over? Please...

  • mentalityx:

    Rad bloke

Archives