Sign Up   |   Sign In  
Ghostbusters: Frozen EmpireAll You Need Is DeathThe Bold and the BeautifulThe DiveBlood FreeAlert: Missing Persons UnitX-Men '97Star Wars: The Bad BatchUnder the BridgeThe BricklayerEvil Does Not ExistThe LoraxFBIFBI: InternationalThe Cleaning LadyGodzilla x Kong: The New EmpireAn American Bombing: The Road to April 19thImmaculateFBI: Most WantedPalm RoyaleShogunLa margeDune: Part TwoJimmy Carr: Natural Born KillerNCIS

Announcements

02/19

2024

1

Comments

Grimsburg S01E02 The Flute Show 720p HULU WEB-DL DDP5 1 H 264-NTb
[RR/NF/CU]
Size: 231MB mkv H264 (HIGH) / EAC3  HD  1280x720

Grimsburg
File Information
[img]http://lookpic.com/cdn/i2/t/0219202410265622-1.jpg[/img]
[img]http://lookpic.com/cdn/i2/t/0219202410265622-2.jpg[/img]
[img]http://lookpic.com/cdn/i2/t/0219202410265622-3.jpg[/img]

General
Unique ID                                : 224887400828607592424262688415045245014 (0xA92FBCE97281E44CD6BDBCF1F001D856)
Complete name                            : Grimsburg.S01E02.The.Flute.Show.720p.HULU.WEB-DL.DDP5.1.H.264-NTb.mkv
Format                                   : Matroska
Format version                           : Version 4
File size                                : 232 MiB
Duration                                 : 21 min 39 s
Overall bit rate                         : 1 497 kb/s
Frame rate                               : 23.976 FPS
Writing application                      : mkvmerge v80.0 ('Roundabout') 64-bit
Writing library                          : libebml v1.4.4 + libmatroska v1.7.1

Video
ID                                       : 1
Format                                   : AVC
Format/Info                              : Advanced Video Codec
Format profile                           : High@L3.1
Format settings                          : CABAC / 5 Ref Frames
Format settings, CABAC                   : Yes
Format settings, Reference frames        : 5 frames
Codec ID                                 : V_MPEG4/ISO/AVC
Duration                                 : 21 min 39 s
Bit rate                                 : 1 239 kb/s
Width                                    : 1 280 pixels
Height                                   : 720 pixels
Display aspect ratio                     : 16:9
Frame rate mode                          : Constant
Frame rate                               : 23.976 (24000/1001) FPS
Color space                              : YUV
Chroma subsampling                       : 4:2:0
Bit depth                                : 8 bits
Scan type                                : Progressive
Bits/(Pixel*Frame)                       : 0.056
Stream size                              : 192 MiB (83%)
Default                                  : Yes
Forced                                   : No

Audio
ID                                       : 2
Format                                   : E-AC-3
Format/Info                              : Enhanced AC-3
Commercial name                          : Dolby Digital Plus
Codec ID                                 : A_EAC3
Duration                                 : 21 min 39 s
Bit rate mode                            : Constant
Bit rate                                 : 256 kb/s
Channel(s)                               : 6 channels
Channel layout                           : L R C LFE Ls Rs
Sampling rate                            : 48.0 kHz
Frame rate                               : 31.250 FPS (1536 SPF)
Compression mode                         : Lossy
Stream size                              : 39.7 MiB (17%)
Language                                 : English
Service kind                             : Complete Main
Default                                  : Yes
Forced                                   : No

Text #1
ID                                       : 3
Format                                   : UTF-8
Codec ID                                 : S_TEXT/UTF8
Codec ID/Info                            : UTF-8 Plain Text
Duration                                 : 21 min 33 s
Bit rate                                 : 105 b/s
Frame rate                               : 0.407 FPS
Count of elements                        : 527
Stream size                              : 16.6 KiB (0%)
Language                                 : English
Default                                  : No
Forced                                   : No

Text #2
ID                                       : 4
Format                                   : UTF-8
Codec ID                                 : S_TEXT/UTF8
Codec ID/Info                            : UTF-8 Plain Text
Duration                                 : 21 min 35 s
Bit rate                                 : 111 b/s
Frame rate                               : 0.450 FPS
Count of elements                        : 583
Stream size                              : 17.7 KiB (0%)
Title                                    : SDH
Language                                 : English
Default                                  : No
Forced                                   : No

Menu
00:00:00.000                             : en:Chapter 1
00:05:40.017                             : en:Chapter 2
00:16:00.013                             : en:Chapter 3
00:20:59.013                             : en:Chapter 4



Download
File Container: MKV
Video/Audio Codec: H264 (HIGH) EAC3
Video Resolution: 1280x720

1 Response to "[RR/NF/CU] Grimsburg S01E02 The Flute Show 720p HULU WEB-DL DDP5 1 H 264-NTb (231MB)"
02/19/24
22:24:21
ReadyPlayerOne

Thank you!

Please Login to post a comment.
If you don't have any account, please Register.
  • Subscribe my Feeds
  • Facebook
Encoding Queue:  x264  x265

Latest Episodes

Popular Movies and TV Shows

  • Ghostbusters: Frozen Empire
  • All You Need Is Death
  • The Bold and the Beautiful
  • The Dive
  • Blood Free
  • Alert: Missing Persons Unit
  • X-Men '97
  • Star Wars: The Bad Batch
  • Under the Bridge
  • The Bricklayer
  • Evil Does Not Exist
  • The Lorax
  • FBI
  • FBI: International
  • The Cleaning Lady
  • Godzilla x Kong: The New Empire
  • An American Bombing: The Road to April 19th
  • Immaculate
  • FBI: Most Wanted
  • Palm Royale
  • Shogun
  • La marge
  • Dune: Part Two
  • Jimmy Carr: Natural Born Killer
  • NCIS

Recent Comments

  • Bigfishguy:

    There's no free option to download this video. Can someone please upload it to clicknupload?

  • timt:

    Junk

  • timt:

    CAM Audio

  • timt:

    Hard Coded SUMS! Russian, I Think.

  • ubirattan:

    Mandem um Fikper, por favor.

  • kellym2: No answer yet for my query - why all the episodes "server under maintenance" on some episo...
  • Majnon:

    Rapidrar links are dead :(

  • Rake:

    Loads of "Server is under maintenance" with RR theese days...

  • kellym2: Why am I getting "Server is in maintenance mode" on some episodes of a series and not on o...
  • Bud:

    Are you ever going to put up Thursday's episode with Liev Schreiber?

  • alp-engin:

    When will that maintenance be over? Please...

  • mentalityx:

    Rad bloke

Archives