Sign Up   |   Sign In  
Saturday Night LiveWonderful WorldSin City: A Dame to Kill ForSin CityDisenchantmentPrey for the BrideBeacon 23ParishImmoral WomenWillowScrambledA Gentleman in MoscowGrey's AnatomyBlue BloodsS.W.A.T.Riddle of FirePacific Rim: UprisingThe War on ChildrenFalloutFire CountryStar Trek: DiscoveryT2 TrainspottingWhiplashDamagedSugar

Announcements

02/28

2024

No

Comments

Animaniacs S07E04 Please Submit 1080p HULU WEB-DL DDP5 1 H 264-NTb
[RR/NF/CU]
Size: 397MB mkv H264 (HIGH) / EAC3  HD  1920x1080

Animaniacs
File Information
[img]http://lookpic.com/cdn/i2/t/0228202405191104-1.jpg[/img]
[img]http://lookpic.com/cdn/i2/t/0228202405191104-2.jpg[/img]
[img]http://lookpic.com/cdn/i2/t/0228202405191104-3.jpg[/img]

General
Unique ID                                : 200190563449883678218514801101109240777 (0x969B4CD198B288BBA95D9273DB80A3C9)
Complete name                            : Animaniacs.S07E04.Please.Submit.1080p.HULU.WEB-DL.DDP5.1.H.264-NTb.mkv
Format                                   : Matroska
Format version                           : Version 4
File size                                : 398 MiB
Duration                                 : 9 min 11 s
Overall bit rate                         : 6 051 kb/s
Frame rate                               : 23.976 FPS
Movie name                               : Please Submit
Encoded date                             : 2024-02-23 22:17:49 UTC
Writing application                      : mkvmerge v81.0 ('Milliontown') 64-bit
Writing library                          : libebml v1.4.4 + libmatroska v1.7.1 / Lavf60.3.100
MOVIE/ENCODER                            : Lavf60.3.100

Video
ID                                       : 1
Format                                   : AVC
Format/Info                              : Advanced Video Codec
Format profile                           : High@L4
Format settings                          : CABAC / 4 Ref Frames
Format settings, CABAC                   : Yes
Format settings, Reference frames        : 4 frames
Codec ID                                 : V_MPEG4/ISO/AVC
Duration                                 : 9 min 11 s
Bit rate                                 : 5 793 kb/s
Width                                    : 1 920 pixels
Height                                   : 1 080 pixels
Display aspect ratio                     : 16:9
Frame rate mode                          : Constant
Frame rate                               : 23.976 (24000/1001) FPS
Color space                              : YUV
Chroma subsampling                       : 4:2:0
Bit depth                                : 8 bits
Scan type                                : Progressive
Bits/(Pixel*Frame)                       : 0.117
Stream size                              : 381 MiB (96%)
Default                                  : Yes
Forced                                   : No

Audio
ID                                       : 2
Format                                   : E-AC-3
Format/Info                              : Enhanced AC-3
Commercial name                          : Dolby Digital Plus
Codec ID                                 : A_EAC3
Duration                                 : 9 min 11 s
Bit rate mode                            : Constant
Bit rate                                 : 256 kb/s
Channel(s)                               : 6 channels
Channel layout                           : L R C LFE Ls Rs
Sampling rate                            : 48.0 kHz
Frame rate                               : 31.250 FPS (1536 SPF)
Bit depth                                : 32 bits
Compression mode                         : Lossy
Stream size                              : 16.8 MiB (4%)
Language                                 : English
Service kind                             : Complete Main
Default                                  : Yes
Forced                                   : No

Text
ID                                       : 3
Format                                   : UTF-8
Codec ID                                 : S_TEXT/UTF8
Codec ID/Info                            : UTF-8 Plain Text
Duration                                 : 8 min 53 s
Bit rate                                 : 83 b/s
Frame rate                               : 0.395 FPS
Count of elements                        : 211
Stream size                              : 5.47 KiB (0%)
Language                                 : English
Default                                  : No
Forced                                   : No



Download
File Container: MKV
Video/Audio Codec: H264 (HIGH) EAC3
Video Resolution: 1920x1080
Please Login to post a comment.
If you don't have any account, please Register.
  • Subscribe my Feeds
  • Facebook
Encoding Queue:  x264  x265

Latest Episodes

Popular Movies and TV Shows

  • Saturday Night Live
  • Wonderful World
  • Sin City: A Dame to Kill For
  • Sin City
  • Disenchantment
  • Prey for the Bride
  • Beacon 23
  • Parish
  • Immoral Women
  • Willow
  • Scrambled
  • A Gentleman in Moscow
  • Grey's Anatomy
  • Blue Bloods
  • S.W.A.T.
  • Riddle of Fire
  • Pacific Rim: Uprising
  • The War on Children
  • Fallout
  • Fire Country
  • Star Trek: Discovery
  • T2 Trainspotting
  • Whiplash
  • Damaged
  • Sugar

Recent Comments

  • mentalityx:

    Rad bloke

  • DownloadHostInspector:

    so far these RMTeam uploads always have a working link. DownloadHostInspector approved!

  • DownloadHostInspector:

    ah yes, this upload has a host that works. clicknupload. DownloadHostInspector approved!

  • DownloadHostInspector: Why are all the download hosts trash? none of them let you download it
  • Qua4ratic:

    clicknupload link plz

  • ppoo:

    Please, can you add "Real Time with Bill Maher S22E11" ??

  • theahtisham:

    Kindly upload Ep. 3 and 4 as well.

  • Kudzu: Update on sound issue, File's codec info says stereo but is only a the left channel If I switch i...
  • Admin:

    kang
    Getting error while encoding, sorry

Archives