Sign Up   |   Sign In  
Red Right HandUndead UnluckResident AlienThe Heartbreak KidEasy StreetLaw & Order: Organized CrimeYoung SheldonAvatar: The Last AirbenderSo Help Me ToddLovely, Dark, and DeepTurtles Can FlyHistory of EvilMasters of the AirGhostsLaw & Order Toronto: Criminal IntentJenny Slate: Seasoned ProfessionalEarwormTiger StripesHaloHightownLaw & Order: Special Victims UnitCellphoneMoonedThe Last AirbenderConstellation

Announcements

02/05

2024

1

Comments

Curb Your Enthusiasm S12E01 Atlanta 1080p AMZN WEB-DL DDP5 1 H 264-NTb
[RR/NF]
Size: 2.3GB mkv H264 (HIGH) / EAC3  HD  1920x1080

Curb Your Enthusiasm
File Information
[img]http://lookpic.com/cdn/i2/t/0205202407085019-1.jpg[/img]
[img]http://lookpic.com/cdn/i2/t/0205202407085019-2.jpg[/img]
[img]http://lookpic.com/cdn/i2/t/0205202407085019-3.jpg[/img]

General
Unique ID                                : 60978693852381670585560090573953601318 (0x2DE011BA1AF89CFB5BBD0B3EFDD08F26)
Complete name                            : Curb.Your.Enthusiasm.S12E01.Atlanta.1080p.AMZN.WEB-DL.DDP5.1.H.264-NTb.mkv
Format                                   : Matroska
Format version                           : Version 4
File size                                : 2.34 GiB
Duration                                 : 34 min 49 s
Overall bit rate                         : 9 600 kb/s
Frame rate                               : 23.976 FPS
Writing application                      : mkvmerge v81.0 ('Milliontown') 64-bit
Writing library                          : libebml v1.4.4 + libmatroska v1.7.1

Video
ID                                       : 1
Format                                   : AVC
Format/Info                              : Advanced Video Codec
Format profile                           : High@L4
Format settings                          : CABAC / 4 Ref Frames
Format settings, CABAC                   : Yes
Format settings, Reference frames        : 4 frames
Codec ID                                 : V_MPEG4/ISO/AVC
Duration                                 : 34 min 49 s
Bit rate mode                            : Constant
Bit rate                                 : 8 954 kb/s
Nominal bit rate                         : 10 000 kb/s
Width                                    : 1 920 pixels
Height                                   : 1 080 pixels
Display aspect ratio                     : 16:9
Frame rate mode                          : Constant
Frame rate                               : 23.976 (24000/1001) FPS
Color space                              : YUV
Chroma subsampling                       : 4:2:0
Bit depth                                : 8 bits
Scan type                                : Progressive
Bits/(Pixel*Frame)                       : 0.180
Stream size                              : 2.18 GiB (93%)
Default                                  : Yes
Forced                                   : No
Color range                              : Limited
Color primaries                          : BT.709
Transfer characteristics                 : BT.709
Matrix coefficients                      : BT.709

Audio
ID                                       : 2
Format                                   : E-AC-3
Format/Info                              : Enhanced AC-3
Commercial name                          : Dolby Digital Plus
Codec ID                                 : A_EAC3
Duration                                 : 34 min 49 s
Bit rate mode                            : Constant
Bit rate                                 : 640 kb/s
Channel(s)                               : 6 channels
Channel layout                           : L R C LFE Ls Rs
Sampling rate                            : 48.0 kHz
Frame rate                               : 31.250 FPS (1536 SPF)
Compression mode                         : Lossy
Stream size                              : 159 MiB (7%)
Language                                 : English (US)
Service kind                             : Complete Main
Default                                  : Yes
Forced                                   : No

Text #1
ID                                       : 3
Format                                   : UTF-8
Codec ID                                 : S_TEXT/UTF8
Codec ID/Info                            : UTF-8 Plain Text
Duration                                 : 33 min 13 s
Bit rate                                 : 104 b/s
Frame rate                               : 0.302 FPS
Count of elements                        : 602
Stream size                              : 25.3 KiB (0%)
Title                                    : English #1
Language                                 : English (US)
Default                                  : No
Forced                                   : No

Text #2
ID                                       : 4
Format                                   : UTF-8
Codec ID                                 : S_TEXT/UTF8
Codec ID/Info                            : UTF-8 Plain Text
Duration                                 : 34 min 41 s
Bit rate                                 : 118 b/s
Frame rate                               : 0.424 FPS
Count of elements                        : 882
Stream size                              : 30.0 KiB (0%)
Title                                    : English #2
Language                                 : English (US)
Default                                  : No
Forced                                   : No

Text #3
ID                                       : 5
Format                                   : UTF-8
Codec ID                                 : S_TEXT/UTF8
Codec ID/Info                            : UTF-8 Plain Text
Duration                                 : 34 min 41 s
Bit rate                                 : 129 b/s
Frame rate                               : 0.437 FPS
Count of elements                        : 909
Stream size                              : 32.8 KiB (0%)
Title                                    : English #2 (SDH)
Language                                 : English (US)
Default                                  : No
Forced                                   : No

Text #4
ID                                       : 6
Format                                   : UTF-8
Codec ID                                 : S_TEXT/UTF8
Codec ID/Info                            : UTF-8 Plain Text
Duration                                 : 33 min 41 s
Bit rate                                 : 138 b/s
Frame rate                               : 0.290 FPS
Count of elements                        : 586
Stream size                              : 34.3 KiB (0%)
Language                                 : Bulgarian (BG)
Default                                  : No
Forced                                   : No

Text #5
ID                                       : 7
Format                                   : UTF-8
Codec ID                                 : S_TEXT/UTF8
Codec ID/Info                            : UTF-8 Plain Text
Duration                                 : 33 min 32 s
Bit rate                                 : 97 b/s
Frame rate                               : 0.302 FPS
Count of elements                        : 607
Stream size                              : 24.0 KiB (0%)
Language                                 : Czech (CZ)
Default                                  : No
Forced                                   : No

Text #6
ID                                       : 8
Format                                   : UTF-8
Codec ID                                 : S_TEXT/UTF8
Codec ID/Info                            : UTF-8 Plain Text
Duration                                 : 34 min 36 s
Bit rate                                 : 72 b/s
Frame rate                               : 0.192 FPS
Count of elements                        : 399
Stream size                              : 18.5 KiB (0%)
Language                                 : Danish (DK)
Default                                  : No
Forced                                   : No

Text #7
ID                                       : 9
Format                                   : UTF-8
Codec ID                                 : S_TEXT/UTF8
Codec ID/Info                            : UTF-8 Plain Text
Duration                                 : 33 min 21 s
Bit rate                                 : 93 b/s
Frame rate                               : 0.325 FPS
Count of elements                        : 651
Stream size                              : 22.9 KiB (0%)
Language                                 : Spanish (Latin America)
Default                                  : No
Forced                                   : No

Text #8
ID                                       : 10
Format                                   : UTF-8
Codec ID                                 : S_TEXT/UTF8
Codec ID/Info                            : UTF-8 Plain Text
Duration                                 : 33 min 28 s
Bit rate                                 : 78 b/s
Frame rate                               : 0.254 FPS
Count of elements                        : 511
Stream size                              : 19.4 KiB (0%)
Language                                 : Finnish (FI)
Default                                  : No
Forced                                   : No

Text #9
ID                                       : 11
Format                                   : UTF-8
Codec ID                                 : S_TEXT/UTF8
Codec ID/Info                            : UTF-8 Plain Text
Duration                                 : 33 min 39 s
Bit rate                                 : 75 b/s
Frame rate                               : 0.235 FPS
Count of elements                        : 474
Stream size                              : 18.5 KiB (0%)
Language                                 : Croatian (HR)
Default                                  : No
Forced                                   : No

Text #10
ID                                       : 12
Format                                   : UTF-8
Codec ID                                 : S_TEXT/UTF8
Codec ID/Info                            : UTF-8 Plain Text
Duration                                 : 33 min 33 s
Bit rate                                 : 93 b/s
Frame rate                               : 0.297 FPS
Count of elements                        : 599
Stream size                              : 23.0 KiB (0%)
Language                                 : Hungarian (HU)
Default                                  : No
Forced                                   : No

Text #11
ID                                       : 13
Format                                   : UTF-8
Codec ID                                 : S_TEXT/UTF8
Codec ID/Info                            : UTF-8 Plain Text
Duration                                 : 33 min 39 s
Bit rate                                 : 129 b/s
Frame rate                               : 0.235 FPS
Count of elements                        : 474
Stream size                              : 31.9 KiB (0%)
Language                                 : Macedonian (MK)
Default                                  : No
Forced                                   : No

Text #12
ID                                       : 14
Format                                   : UTF-8
Codec ID                                 : S_TEXT/UTF8
Codec ID/Info                            : UTF-8 Plain Text
Duration                                 : 33 min 28 s
Bit rate                                 : 81 b/s
Frame rate                               : 0.229 FPS
Count of elements                        : 460
Stream size                              : 19.9 KiB (0%)
Language                                 : Dutch (NL)
Default                                  : No
Forced                                   : No

Text #13
ID                                       : 15
Format                                   : UTF-8
Codec ID                                 : S_TEXT/UTF8
Codec ID/Info                            : UTF-8 Plain Text
Duration                                 : 34 min 37 s
Bit rate                                 : 71 b/s
Frame rate                               : 0.184 FPS
Count of elements                        : 383
Stream size                              : 18.0 KiB (0%)
Language                                 : Norwegian (NO)
Default                                  : No
Forced                                   : No

Text #14
ID                                       : 16
Format                                   : UTF-8
Codec ID                                 : S_TEXT/UTF8
Codec ID/Info                            : UTF-8 Plain Text
Duration                                 : 34 min 27 s
Bit rate                                 : 66 b/s
Frame rate                               : 0.309 FPS
Count of elements                        : 639
Stream size                              : 16.9 KiB (0%)
Language                                 : Polish (PL)
Default                                  : No
Forced                                   : No

Text #15
ID                                       : 17
Format                                   : UTF-8
Codec ID                                 : S_TEXT/UTF8
Codec ID/Info                            : UTF-8 Plain Text
Duration                                 : 33 min 26 s
Bit rate                                 : 96 b/s
Frame rate                               : 0.324 FPS
Count of elements                        : 650
Stream size                              : 23.6 KiB (0%)
Title                                    : Portuguese (Brazil)
Language                                 : Portuguese (BR)
Default                                  : No
Forced                                   : No

Text #16
ID                                       : 18
Format                                   : UTF-8
Codec ID                                 : S_TEXT/UTF8
Codec ID/Info                            : UTF-8 Plain Text
Duration                                 : 33 min 28 s
Bit rate                                 : 90 b/s
Frame rate                               : 0.280 FPS
Count of elements                        : 562
Stream size                              : 22.1 KiB (0%)
Title                                    : Portuguese (Portugal)
Language                                 : Portuguese (PT)
Default                                  : No
Forced                                   : No

Text #17
ID                                       : 19
Format                                   : UTF-8
Codec ID                                 : S_TEXT/UTF8
Codec ID/Info                            : UTF-8 Plain Text
Duration                                 : 33 min 35 s
Bit rate                                 : 89 b/s
Frame rate                               : 0.277 FPS
Count of elements                        : 558
Stream size                              : 21.9 KiB (0%)
Language                                 : Romanian (RO)
Default                                  : No
Forced                                   : No

Text #18
ID                                       : 20
Format                                   : UTF-8
Codec ID                                 : S_TEXT/UTF8
Codec ID/Info                            : UTF-8 Plain Text
Duration                                 : 33 min 39 s
Bit rate                                 : 74 b/s
Frame rate                               : 0.235 FPS
Count of elements                        : 474
Stream size                              : 18.3 KiB (0%)
Language                                 : Slovenian (SI)
Default                                  : No
Forced                                   : No

Text #19
ID                                       : 21
Format                                   : UTF-8
Codec ID                                 : S_TEXT/UTF8
Codec ID/Info                            : UTF-8 Plain Text
Duration                                 : 33 min 39 s
Bit rate                                 : 77 b/s
Frame rate                               : 0.235 FPS
Count of elements                        : 474
Stream size                              : 19.0 KiB (0%)
Language                                 : Serbian-Latn-RS
Default                                  : No
Forced                                   : No

Text #20
ID                                       : 22
Format                                   : UTF-8
Codec ID                                 : S_TEXT/UTF8
Codec ID/Info                            : UTF-8 Plain Text
Duration                                 : 34 min 37 s
Bit rate                                 : 73 b/s
Frame rate                               : 0.184 FPS
Count of elements                        : 383
Stream size                              : 18.6 KiB (0%)
Language                                 : Swedish (SE)
Default                                  : No
Forced                                   : No



Download
File Container: MKV
Video/Audio Codec: H264 (HIGH) EAC3
Video Resolution: 1920x1080

1 Response to "[RR/NF] Curb Your Enthusiasm S12E01 Atlanta 1080p AMZN WEB-DL DDP5 1 H 264-NTb (2.3GB)"
02/05/24
16:44:09
ReadyPlayerOne

Thank You

Please Login to post a comment.
If you don't have any account, please Register.
  • Subscribe my Feeds
  • Facebook

Latest Episodes

Popular Movies and TV Shows

  • Red Right Hand
  • Undead Unluck
  • Resident Alien
  • The Heartbreak Kid
  • Easy Street
  • Law & Order: Organized Crime
  • Young Sheldon
  • Avatar: The Last Airbender
  • So Help Me Todd
  • Lovely, Dark, and Deep
  • Turtles Can Fly
  • History of Evil
  • Masters of the Air
  • Ghosts
  • Law & Order Toronto: Criminal Intent
  • Jenny Slate: Seasoned Professional
  • Earworm
  • Tiger Stripes
  • Halo
  • Hightown
  • Law & Order: Special Victims Unit
  • Cellphone
  • Mooned
  • The Last Airbender
  • Constellation

Recent Comments

Archives