Sign Up   |   Sign In  
Ghostbusters: Frozen EmpireAll You Need Is DeathX-Men '97The Bold and the BeautifulVanderpump RulesL.A. ConfidentialStar Wars: The Bad BatchFeudUnder the BridgeThe BricklayerEvil Does Not ExistThe LoraxFBIFBI: InternationalThe Cleaning LadyGodzilla x Kong: The New EmpireAn American Bombing: The Road to April 19thLa margeFBI: Most WantedShogunPalm RoyaleImmaculateDune: Part TwoJimmy Carr: Natural Born KillerNCIS

Announcements

02/22

2024

No

Comments

Jellystone S03E07 Frankenhooky 1080p AMZN WEB-DL DDP5 1 H 264-NTb
[RR/NF/CU]
Size: 393MB mkv H264 (HIGH) / EAC3  HD  1920x1080

Jellystone
File Information
[img]http://lookpic.com/cdn/i2/t/0222202410345385-1.jpg[/img]
[img]http://lookpic.com/cdn/i2/t/0222202410345385-2.jpg[/img]
[img]http://lookpic.com/cdn/i2/t/0222202410345385-3.jpg[/img]

General
Unique ID                                : 143574809313825794927039362507860261602 (0x6C0380A0AD02906728716C216AD6BAE2)
Complete name                            : Jellystone.S03E07.Frankenhooky.1080p.AMZN.WEB-DL.DDP5.1.H.264-NTb.mkv
Format                                   : Matroska
Format version                           : Version 4
File size                                : 393 MiB
Duration                                 : 11 min 16 s
Overall bit rate                         : 4 874 kb/s
Frame rate                               : 23.976 FPS
Writing application                      : mkvmerge v80.0 ('Roundabout') 64-bit
Writing library                          : libebml v1.4.4 + libmatroska v1.7.1

Video
ID                                       : 1
Format                                   : AVC
Format/Info                              : Advanced Video Codec
Format profile                           : High@L4
Format settings                          : CABAC / 4 Ref Frames
Format settings, CABAC                   : Yes
Format settings, Reference frames        : 4 frames
Codec ID                                 : V_MPEG4/ISO/AVC
Duration                                 : 11 min 16 s
Bit rate mode                            : Constant
Bit rate                                 : 4 232 kb/s
Nominal bit rate                         : 10 000 kb/s
Width                                    : 1 920 pixels
Height                                   : 1 080 pixels
Display aspect ratio                     : 16:9
Frame rate mode                          : Constant
Frame rate                               : 23.976 (24000/1001) FPS
Color space                              : YUV
Chroma subsampling                       : 4:2:0
Bit depth                                : 8 bits
Scan type                                : Progressive
Bits/(Pixel*Frame)                       : 0.085
Stream size                              : 341 MiB (87%)
Default                                  : Yes
Forced                                   : No
Color range                              : Limited
Color primaries                          : BT.709
Transfer characteristics                 : BT.709
Matrix coefficients                      : BT.709

Audio
ID                                       : 2
Format                                   : E-AC-3
Format/Info                              : Enhanced AC-3
Commercial name                          : Dolby Digital Plus
Codec ID                                 : A_EAC3
Duration                                 : 11 min 16 s
Bit rate mode                            : Constant
Bit rate                                 : 640 kb/s
Channel(s)                               : 6 channels
Channel layout                           : L R C LFE Ls Rs
Sampling rate                            : 48.0 kHz
Frame rate                               : 31.250 FPS (1536 SPF)
Compression mode                         : Lossy
Stream size                              : 51.6 MiB (13%)
Language                                 : English (US)
Service kind                             : Complete Main
Default                                  : Yes
Forced                                   : No

Text #1
ID                                       : 3
Format                                   : UTF-8
Codec ID                                 : S_TEXT/UTF8
Codec ID/Info                            : UTF-8 Plain Text
Duration                                 : 10 min 26 s
Bit rate                                 : 98 b/s
Frame rate                               : 0.374 FPS
Count of elements                        : 234
Stream size                              : 7.54 KiB (0%)
Language                                 : English (US)
Default                                  : No
Forced                                   : No

Text #2
ID                                       : 4
Format                                   : UTF-8
Codec ID                                 : S_TEXT/UTF8
Codec ID/Info                            : UTF-8 Plain Text
Duration                                 : 10 min 41 s
Bit rate                                 : 110 b/s
Frame rate                               : 0.407 FPS
Count of elements                        : 261
Stream size                              : 8.65 KiB (0%)
Title                                    : SDH
Language                                 : English (US)
Default                                  : No
Forced                                   : No

Text #3
ID                                       : 5
Format                                   : UTF-8
Codec ID                                 : S_TEXT/UTF8
Codec ID/Info                            : UTF-8 Plain Text
Duration                                 : 10 min 31 s
Bit rate                                 : 83 b/s
Frame rate                               : 0.355 FPS
Count of elements                        : 224
Stream size                              : 6.42 KiB (0%)
Language                                 : Spanish (Latin America)
Default                                  : No
Forced                                   : No

Text #4
ID                                       : 6
Format                                   : UTF-8
Codec ID                                 : S_TEXT/UTF8
Codec ID/Info                            : UTF-8 Plain Text
Duration                                 : 10 min 31 s
Bit rate                                 : 101 b/s
Frame rate                               : 0.356 FPS
Count of elements                        : 225
Stream size                              : 7.85 KiB (0%)
Language                                 : Portuguese (BR)
Default                                  : No
Forced                                   : No



Download
File Container: MKV
Video/Audio Codec: H264 (HIGH) EAC3
Video Resolution: 1920x1080
Please Login to post a comment.
If you don't have any account, please Register.
  • Subscribe my Feeds
  • Facebook
Encoding Queue:  x264  x265

Latest Episodes

Popular Movies and TV Shows

  • Ghostbusters: Frozen Empire
  • All You Need Is Death
  • X-Men '97
  • The Bold and the Beautiful
  • Vanderpump Rules
  • L.A. Confidential
  • Star Wars: The Bad Batch
  • Feud
  • Under the Bridge
  • The Bricklayer
  • Evil Does Not Exist
  • The Lorax
  • FBI
  • FBI: International
  • The Cleaning Lady
  • Godzilla x Kong: The New Empire
  • An American Bombing: The Road to April 19th
  • La marge
  • FBI: Most Wanted
  • Shogun
  • Palm Royale
  • Immaculate
  • Dune: Part Two
  • Jimmy Carr: Natural Born Killer
  • NCIS

Recent Comments

  • timt:

    Junk

  • timt:

    CAM Audio

  • timt:

    Hard Coded SUMS! Russian, I Think.

  • ubirattan:

    Mandem um Fikper, por favor.

  • kellym2: No answer yet for my query - why all the episodes "server under maintenance" on some episo...
  • Majnon:

    Rapidrar links are dead :(

  • Rake:

    Loads of "Server is under maintenance" with RR theese days...

  • kellym2: Why am I getting "Server is in maintenance mode" on some episodes of a series and not on o...
  • Bud:

    Are you ever going to put up Thursday's episode with Liev Schreiber?

  • alp-engin:

    When will that maintenance be over? Please...

  • mentalityx:

    Rad bloke

  • DownloadHostInspector:

    so far these RMTeam uploads always have a working link. DownloadHostInspector approved!

  • DownloadHostInspector:

    ah yes, this upload has a host that works. clicknupload. DownloadHostInspector approved!

  • DownloadHostInspector: Why are all the download hosts trash? none of them let you download it

Archives