Sign Up   |   Sign In  
Rebel Moon - Part Two: The ScargiverBeyond ParadiseThe Bold and the BeautifulLet's Make a DealBlood for DustAsphalt CityLate Night with the DevilYoung SheldonSouth ParkThe Spiderwick ChroniclesProblemistaArticle 370SugarA Gentleman in MoscowElsbethThe Three Musketeers - Part II: MiladyRiver WildThe ReaderGhostsStar Trek: DiscoveryLaw & Order: Special Victims UnitGhostbusters: Frozen EmpireYou Were Never Really HereGodzilla x Kong: The New EmpireThe Good Doctor

Announcements

02/22

2024

1

Comments

Not Dead Yet S02E03 Not in the Cards Yet 1080p AMZN WEB-DL DDP5 1 H 264-NTb
[RR/NF/CU]
Size: 1.4GB mkv H264 (HIGH) / EAC3  HD  1920x1080

Not Dead Yet
File Information
[img]http://lookpic.com/cdn/i2/t/0222202411131658-1.jpg[/img]
[img]http://lookpic.com/cdn/i2/t/0222202411131658-2.jpg[/img]
[img]http://lookpic.com/cdn/i2/t/0222202411131658-3.jpg[/img]

General
Unique ID                                : 161726094203298656429174203972330602903 (0x79AB5011231D3DAAC7B12C09DFCE4197)
Complete name                            : Not.Dead.Yet.S02E03.Not.in.the.Cards.Yet.1080p.AMZN.WEB-DL.DDP5.1.H.264-NTb.mkv
Format                                   : Matroska
Format version                           : Version 4
File size                                : 1.41 GiB
Duration                                 : 21 min 33 s
Overall bit rate                         : 9 361 kb/s
Frame rate                               : 23.976 FPS
Writing application                      : mkvmerge v81.0 ('Milliontown') 64-bit
Writing library                          : libebml v1.4.4 + libmatroska v1.7.1

Video
ID                                       : 1
Format                                   : AVC
Format/Info                              : Advanced Video Codec
Format profile                           : High@L4
Format settings                          : CABAC / 4 Ref Frames
Format settings, CABAC                   : Yes
Format settings, Reference frames        : 4 frames
Codec ID                                 : V_MPEG4/ISO/AVC
Duration                                 : 21 min 33 s
Bit rate mode                            : Constant
Bit rate                                 : 8 719 kb/s
Nominal bit rate                         : 10 000 kb/s
Width                                    : 1 920 pixels
Height                                   : 1 080 pixels
Display aspect ratio                     : 16:9
Frame rate mode                          : Constant
Frame rate                               : 23.976 (24000/1001) FPS
Color space                              : YUV
Chroma subsampling                       : 4:2:0
Bit depth                                : 8 bits
Scan type                                : Progressive
Bits/(Pixel*Frame)                       : 0.175
Stream size                              : 1.31 GiB (93%)
Default                                  : Yes
Forced                                   : No
Color range                              : Limited
Color primaries                          : BT.709
Transfer characteristics                 : BT.709
Matrix coefficients                      : BT.709

Audio
ID                                       : 2
Format                                   : E-AC-3
Format/Info                              : Enhanced AC-3
Commercial name                          : Dolby Digital Plus
Codec ID                                 : A_EAC3
Duration                                 : 21 min 33 s
Bit rate mode                            : Constant
Bit rate                                 : 640 kb/s
Channel(s)                               : 6 channels
Channel layout                           : L R C LFE Ls Rs
Sampling rate                            : 48.0 kHz
Frame rate                               : 31.250 FPS (1536 SPF)
Compression mode                         : Lossy
Stream size                              : 98.7 MiB (7%)
Language                                 : English (US)
Service kind                             : Complete Main
Default                                  : Yes
Forced                                   : No

Text #1
ID                                       : 3
Format                                   : UTF-8
Codec ID                                 : S_TEXT/UTF8
Codec ID/Info                            : UTF-8 Plain Text
Duration                                 : 21 min 18 s
Bit rate                                 : 117 b/s
Frame rate                               : 0.378 FPS
Count of elements                        : 484
Stream size                              : 18.4 KiB (0%)
Language                                 : English (US)
Default                                  : No
Forced                                   : No

Text #2
ID                                       : 4
Format                                   : UTF-8
Codec ID                                 : S_TEXT/UTF8
Codec ID/Info                            : UTF-8 Plain Text
Duration                                 : 21 min 18 s
Bit rate                                 : 126 b/s
Frame rate                               : 0.400 FPS
Count of elements                        : 511
Stream size                              : 19.7 KiB (0%)
Title                                    : SDH
Language                                 : English (US)
Default                                  : No
Forced                                   : No



Download
File Container: MKV
Video/Audio Codec: H264 (HIGH) EAC3
Video Resolution: 1920x1080

1 Response to "[RR/NF/CU] Not Dead Yet S02E03 Not in the Cards Yet 1080p AMZN WEB-DL DDP5 1 H 264-NTb (1.4GB)"
02/22/24
22:12:44
ReadyPlayerOne

Thank You

Please Login to post a comment.
If you don't have any account, please Register.
  • Subscribe my Feeds
  • Facebook
Encoding Queue:  x264  x265

Latest Episodes

Popular Movies and TV Shows

  • Rebel Moon - Part Two: The Scargiver
  • Beyond Paradise
  • The Bold and the Beautiful
  • Let's Make a Deal
  • Blood for Dust
  • Asphalt City
  • Late Night with the Devil
  • Young Sheldon
  • South Park
  • The Spiderwick Chronicles
  • Problemista
  • Article 370
  • Sugar
  • A Gentleman in Moscow
  • Elsbeth
  • The Three Musketeers - Part II: Milady
  • River Wild
  • The Reader
  • Ghosts
  • Star Trek: Discovery
  • Law & Order: Special Victims Unit
  • Ghostbusters: Frozen Empire
  • You Were Never Really Here
  • Godzilla x Kong: The New Empire
  • The Good Doctor

Recent Comments

  • Richardexamp: I recently stumbled upon https://asiancasinos.org/ and I obligated to symbolize, it has with dispatc...
  • 23d1:

    ClicknUpload link is missing

  • yopo:

    NitroFlare's link is missing !!!

  • yopo:

    NitroFlare's link is missing !!!

  • yopo:

    NitroFlare's link is missing !!!
    Clicknupload's link is missing !!!

  • yopo:

    NitroFlare's link is missing !!!

  • dragonnightfire: I have tried contacting Rapid Rar to find out what is going on with the server maintainance. I am no...
  • dragonnightfire:

    RR links dead on 5 eps

  • Draveren: hi. can we solve this "server under maintenance" stuff, already? if back in the day i'd ke...
  • Majnon: The links are dead. Please re-upload
  • timt:

    Anyone have the movie "Shoot" (1976) to post?

  • Nightshade: Hey, it appears at least the RMTeam separate episodes and ION's packs for the first two seasons of t...
  • Bigfishguy:

    There's no free option to download this video. Can someone please upload it to clicknupload?

  • timt:

    Junk

  • timt:

    CAM Audio

  • timt:

    Hard Coded SUMS! Russian, I Think.

  • ubirattan:

    Mandem um Fikper, por favor.

  • kellym2: No answer yet for my query - why all the episodes "server under maintenance" on some episo...
  • Majnon:

    Rapidrar links are dead :(

  • Rake:

    Loads of "Server is under maintenance" with RR theese days...

Archives